<?xml version="1.0" standalone="no"?>
<!DOCTYPE svg PUBLIC "-//W3C//DTD SVG 1.1//EN" "http://www.w3.org/Graphics/SVG/1.1/DTD/svg11.dtd" >
<svg xmlns="http://www.w3.org/2000/svg" xmlns:xlink="http://www.w3.org/1999/xlink" version="1.1">
<metadata>
Created by FontForge 20141024 at Mon Jan 18 08:35:28 2016
 By Jimmy Warting
(c) 2009 Microsoft Corporation. All Rights Reserved. Portions (c) 2009 DynaComware Corp. All Rights Reserved. Portions (c) 2009 Ascender Corp. All Rights Reserved.
</metadata>
<defs>
<font id="MicrosoftNewTaiLue" horiz-adv-x="1104" >
  <font-face 
    font-family="Microsoft New Tai Lue"
    font-weight="400"
    font-stretch="normal"
    units-per-em="2048"
    panose-1="2 11 5 2 4 2 4 2 2 3"
    ascent="1638"
    descent="-410"
    x-height="1024"
    cap-height="1434"
    bbox="-312 -780 2398 1899"
    underline-thickness="119"
    underline-position="-120"
    unicode-range="U+000D-FF64"
  />
<missing-glyph horiz-adv-x="1322" 
d="M166 0v1398h990v-1398h-990zM314 148h694v1102h-694v-1102z" />
    <glyph glyph-name=".notdef" horiz-adv-x="1322" 
d="M166 0v1398h990v-1398h-990zM314 148h694v1102h-694v-1102z" />
    <glyph glyph-name="uni000D" unicode="&#xd;" horiz-adv-x="0" 
 />
    <glyph glyph-name="nonmarkingreturn" horiz-adv-x="199" 
 />
    <glyph glyph-name="space" unicode=" " horiz-adv-x="561" 
 />
    <glyph glyph-name="exclam" unicode="!" horiz-adv-x="582" 
d="M375 1434l-19 -1030h-135l-18 1030h172zM291 -18q-46 0 -78.5 32t-32.5 78t32.5 78.5t78.5 32.5q45 0 78 -32.5t33 -78.5t-33 -78t-78 -32z" />
    <glyph glyph-name="quotedbl" unicode="&#x22;" horiz-adv-x="803" 
d="M323 1434l-30 -447h-115l-30 447h175zM655 1434l-30 -447h-115l-30 447h175z" />
    <glyph glyph-name="numbersign" unicode="#" horiz-adv-x="1210" 
d="M1166 1032l-23 -106h-261l-63 -300h281l-27 -106h-275l-88 -397h-126l86 397h-250l-84 -397h-125l84 397h-262l20 106h265l61 300h-277l21 106h277l84 402h126l-84 -402h252l86 402h123l-84 -402h263zM758 926h-252l-66 -300h254z" />
    <glyph glyph-name="dollar" unicode="$" 
d="M616 8v-217h-104v209q-213 0 -346 86v174q58 -51 158.5 -85.5t187.5 -34.5v512q-220 106 -285 195.5t-65 211.5q0 145 99 250.5t251 126.5v180h104v-176q196 -6 271 -56v-170q-102 80 -271 86v-528q208 -99 284.5 -191.5t76.5 -210.5q0 -142 -95.5 -238.5t-265.5 -123.5z
M512 828v466q-84 -17 -133 -74.5t-49 -139.5q0 -86 40 -141t142 -111zM616 600v-452q193 42 193 208q0 138 -193 244z" />
    <glyph glyph-name="percent" unicode="%" horiz-adv-x="1676" 
d="M404 715q-148 0 -236 97.5t-88 260.5q0 178 93 280.5t251 102.5q153 0 237.5 -95t84.5 -267t-94.5 -275.5t-247.5 -103.5zM418 1346q-95 0 -150 -70.5t-55 -193.5q0 -121 54 -188.5t147 -67.5q94 0 147 70t53 194q0 121 -52.5 188.5t-143.5 67.5zM1364 1434l-920 -1444
h-143l919 1444h144zM1258 -22q-148 0 -236 98t-88 260q0 178 94 281.5t250 103.5q152 0 237 -96t85 -269q0 -171 -94.5 -274.5t-247.5 -103.5zM1272 608q-96 0 -150.5 -70t-54.5 -194q0 -119 54 -186.5t147 -67.5q94 0 147 70.5t53 193.5q0 122 -52.5 188t-143.5 66z" />
    <glyph glyph-name="ampersand" unicode="&#x26;" horiz-adv-x="1639" 
d="M1445 -23q-57 0 -100.5 15.5t-80.5 44t-71.5 69.5t-72.5 93q-40 -43 -92.5 -83t-116.5 -71t-140 -49.5t-165 -18.5q-108 0 -198 27t-154 79.5t-99.5 129.5t-35.5 177q0 153 87 261.5t246 177.5q-30 22 -60 51.5t-53.5 67t-38 83t-14.5 99.5q0 79 28.5 140t78.5 103
t118 63.5t147 21.5q78 0 142.5 -21.5t111 -61.5t72.5 -96t26 -125q0 -120 -68.5 -199.5t-205.5 -135.5q69 -27 125 -66t103.5 -87t88.5 -103t81 -114q81 113 122 249t41 285q0 38 -4.5 71.5t-12.5 66.5h159q8 -33 9.5 -62.5t3.5 -70.5q0 -91 -19 -183t-51 -178.5
t-74.5 -164.5t-89.5 -143q35 -48 64 -83.5t58.5 -59.5t61 -35.5t71.5 -11.5q30 0 61 8t64 20v-152q-36 -14 -75.5 -21t-77.5 -7zM606 119q76 0 140 16.5t118 44t98 64t80 76.5q-61 95 -112.5 162.5t-104 116.5t-112 84t-137.5 65q-63 -25 -116 -55.5t-91.5 -72t-60.5 -96.5
t-22 -129q0 -68 25 -120t68.5 -86.5t101.5 -52t125 -17.5zM856 1140q0 50 -18.5 85t-47 58t-63.5 33.5t-69 10.5q-98 0 -156.5 -53t-59.5 -144q0 -41 12.5 -77t35 -67t52.5 -55t64 -41q126 44 188 102.5t62 147.5z" />
    <glyph glyph-name="quotesingle" unicode="'" horiz-adv-x="471" 
d="M323 1434l-30 -447h-115l-30 447h175z" />
    <glyph glyph-name="parenleft" unicode="(" horiz-adv-x="618" 
d="M596 -326h-146q-310 354 -310 873q0 521 310 887h148q-314 -380 -314 -885q0 -501 312 -875z" />
    <glyph glyph-name="parenright" unicode=")" horiz-adv-x="618" 
d="M170 -326h-146q312 374 312 875q0 505 -314 885h148q312 -366 312 -887q0 -519 -312 -873z" />
    <glyph glyph-name="asterisk" unicode="*" horiz-adv-x="854" 
d="M780 1104l-274 -56l190 -243l-110 -76l-156 265l-158 -265l-110 76l190 243l-276 56l45 125l262 -99l-23 304h138l-23 -304l263 99z" />
    <glyph glyph-name="plus" unicode="+" horiz-adv-x="1401" 
d="M1172 530h-404v-403h-133v403h-403v134h403v403h133v-403h404v-134z" />
    <glyph glyph-name="comma" unicode="," horiz-adv-x="444" 
d="M316 228l-160 -492h-117l117 492h160z" />
    <glyph glyph-name="hyphen" unicode="-" horiz-adv-x="819" 
d="M690 506h-546v129h546v-129z" />
    <glyph glyph-name="period" unicode="." horiz-adv-x="444" 
d="M223 -22q-46 0 -78.5 33t-32.5 79t32.5 79.5t78.5 33.5q47 0 80 -33.5t33 -79.5t-33 -79t-80 -33z" />
    <glyph glyph-name="slash" unicode="/" horiz-adv-x="798" 
d="M813 1434l-688 -1672h-153l686 1672h155z" />
    <glyph glyph-name="zero" unicode="0" 
d="M538 -24q-213 0 -332.5 183t-119.5 529q0 380 124.5 575t359.5 195q450 0 450 -735q0 -364 -127 -555.5t-355 -191.5zM561 1319q-307 0 -307 -623q0 -582 301 -582q297 0 297 592q0 613 -291 613z" />
    <glyph glyph-name="one" unicode="1" 
d="M987 0h-811v144h324v1114l-332 -99v156l496 151v-1322h323v-144z" />
    <glyph glyph-name="two" unicode="2" 
d="M960 0h-864v146l418 419q160 160 228.5 266.5t68.5 227.5q0 124 -71 192t-202 68q-192 0 -368 -164v172q168 131 391 131q192 0 302 -104t110 -279q0 -138 -76 -269.5t-273 -326.5l-331 -327v-4h667v-148z" />
    <glyph glyph-name="three" unicode="3" 
d="M131 53v177q147 -116 332 -116q150 0 239.5 75t89.5 202q0 281 -399 281h-119v139h113q355 0 355 264q0 244 -271 244q-151 0 -285 -103v160q138 82 326 82q181 0 289.5 -96t108.5 -246q0 -283 -288 -364v-4q155 -15 246.5 -108.5t91.5 -233.5q0 -193 -138.5 -311.5
t-365.5 -118.5q-204 0 -325 77z" />
    <glyph glyph-name="four" unicode="4" 
d="M1034 381h-184v-381h-162v381h-674v107l638 946h198v-920h184v-133zM688 514v620q0 66 4 148h-4q-14 -36 -55 -110l-441 -658h496z" />
    <glyph glyph-name="five" unicode="5" 
d="M164 35v174q147 -95 299 -95t245 86t93 228q0 141 -95 220t-272 79q-60 0 -225 -12v719h694v-148h-539v-420q66 4 122 4q230 0 356 -115.5t126 -316.5q0 -208 -135.5 -335t-371.5 -127q-199 0 -297 59z" />
    <glyph glyph-name="six" unicode="6" 
d="M934 1417v-155q-111 57 -234 57q-191 0 -305.5 -170t-114.5 -455h4q100 203 328 203q188 0 299 -120.5t111 -322.5q0 -211 -127 -344.5t-323 -133.5q-216 0 -339 172t-123 483q0 377 161 602t425 225q150 0 238 -41zM576 758q-127 0 -206 -86t-79 -203q0 -147 78.5 -251
t208.5 -104q124 0 200 90.5t76 229.5q0 152 -73 238t-205 86z" />
    <glyph glyph-name="seven" unicode="7" 
d="M1010 1382l-568 -1382h-170l537 1286h-723v148h924v-52z" />
    <glyph glyph-name="eight" unicode="8" 
d="M410 752v4q-258 120 -258 348q0 155 118 254.5t304 99.5q168 0 276 -93t108 -239q0 -238 -266 -370v-4q314 -112 314 -388q0 -178 -128 -283t-356 -105q-184 0 -303 104t-119 270q0 276 310 402zM790 1106q0 99 -62 156t-169 57q-100 0 -169.5 -59.5t-69.5 -151.5
q0 -187 233 -282q237 98 237 280zM542 674q-274 -109 -274 -316q0 -107 79.5 -175.5t209.5 -68.5q124 0 202.5 67.5t78.5 170.5q0 216 -296 322z" />
    <glyph glyph-name="nine" unicode="9" 
d="M172 24v158q120 -68 254 -68q195 0 303.5 157t108.5 446q-2 -1 -4 0q-92 -185 -320 -185q-184 0 -302 125t-118 322q0 210 129.5 344.5t331.5 134.5q212 0 330.5 -167.5t118.5 -487.5q0 -397 -154 -612t-428 -215q-144 0 -250 48zM540 1319q-119 0 -198.5 -89.5
t-79.5 -227.5q0 -151 78 -237.5t211 -86.5q116 0 196.5 79t80.5 193q0 163 -80 266t-208 103z" />
    <glyph glyph-name="colon" unicode=":" horiz-adv-x="444" 
d="M223 824q-46 0 -78.5 33t-32.5 79t32.5 78t78.5 32q47 0 80 -32t33 -78t-33 -79t-80 -33zM223 -22q-46 0 -78.5 33t-32.5 79t32.5 79.5t78.5 33.5q47 0 80 -33.5t33 -79.5t-33 -79t-80 -33z" />
    <glyph glyph-name="semicolon" unicode=";" horiz-adv-x="444" 
d="M226 824q-47 0 -79.5 33t-32.5 79t32.5 78t79.5 32q46 0 79 -32t33 -78t-33 -79t-79 -33zM316 228l-160 -492h-117l117 492h160z" />
    <glyph glyph-name="less" unicode="&#x3c;" horiz-adv-x="1401" 
d="M1132 127l-860 432v59l860 482v-150l-642 -356v-4l642 -314v-149z" />
    <glyph glyph-name="equal" unicode="=" horiz-adv-x="1401" 
d="M1172 744h-940v132h940v-132zM1172 318h-940v132h940v-132z" />
    <glyph glyph-name="greater" unicode="&#x3e;" horiz-adv-x="1401" 
d="M1132 559l-860 -432v149l644 312v6l-644 356v150l860 -482v-59z" />
    <glyph glyph-name="question" unicode="?" horiz-adv-x="918" 
d="M335 398q-9 26 -16 67.5t-7 82.5q0 64 25.5 115.5t63.5 96.5t83 86.5t83 84t63.5 89t25.5 102.5q0 48 -18.5 85t-50.5 62t-74 37.5t-89 12.5q-169 0 -293 -133v176q153 96 317 96q76 0 143 -20t117.5 -59.5t79.5 -98.5t29 -137q0 -74 -26 -132t-65.5 -106.5t-85.5 -90.5
t-85.5 -83.5t-65.5 -86.5t-26 -99q0 -46 11 -83.5t22 -63.5h-161zM425 -18q-44 0 -78 32q-33 32 -33 78q0 47 33 78q33 33 78 33t78 -33q33 -31 33 -78q0 -46 -33 -78q-34 -32 -78 -32z" />
    <glyph glyph-name="at" unicode="@" horiz-adv-x="1956" 
d="M1164 420h-5q-73 -238 -287 -238q-137 0 -220.5 101t-83.5 272q0 226 115.5 375.5t303.5 149.5q72 0 128.5 -37t72.5 -93h4q2 28 10 115h125q-47 -551 -47 -561q0 -207 119 -207q108 0 179.5 117t71.5 303q0 275 -174 449t-482 174q-297 0 -491 -208t-194 -520
q0 -307 184.5 -495.5t497.5 -188.5q247 0 422 82v-124q-173 -74 -432 -74q-364 0 -586.5 219.5t-222.5 574.5q0 366 233.5 607t596.5 241q340 0 563 -202t223 -527q0 -238 -117.5 -390.5t-286.5 -152.5q-219 0 -220 238zM985 964q-124 0 -200.5 -118t-76.5 -293
q0 -118 51.5 -186t137.5 -68q124 0 196.5 123.5t72.5 327.5q0 214 -181 214z" />
    <glyph glyph-name="A" unicode="A" horiz-adv-x="1321" 
d="M1298 0h-186l-152 402h-608l-143 -402h-187l550 1434h174zM905 553l-225 611q-11 30 -22 96h-4q-10 -61 -23 -96l-223 -611h497z" />
    <glyph glyph-name="B" unicode="B" horiz-adv-x="1174" 
d="M188 0v1434h408q186 0 295 -91t109 -237q0 -122 -66 -212t-182 -128v-4q145 -17 232 -109.5t87 -240.5q0 -184 -132 -298t-333 -114h-418zM356 1282v-463h172q138 0 217 66.5t79 187.5q0 209 -275 209h-193zM356 668v-516h228q148 0 229.5 70t81.5 192q0 254 -346 254
h-193z" />
    <glyph glyph-name="C" unicode="C" horiz-adv-x="1268" 
d="M1164 60q-159 -84 -396 -84q-306 0 -490 197t-184 517q0 344 207 556t525 212q204 0 338 -59v-179q-154 86 -340 86q-247 0 -400.5 -165t-153.5 -441q0 -262 143.5 -417.5t376.5 -155.5q216 0 374 96v-163z" />
    <glyph glyph-name="D" unicode="D" horiz-adv-x="1436" 
d="M188 0v1434h396q758 0 758 -699q0 -332 -210.5 -533.5t-563.5 -201.5h-380zM356 1282v-1130h214q282 0 439 151t157 428q0 551 -586 551h-224z" />
    <glyph glyph-name="E" unicode="E" horiz-adv-x="1036" 
d="M948 0h-760v1434h728v-152h-560v-477h518v-151h-518v-502h592v-152z" />
    <glyph glyph-name="F" unicode="F" horiz-adv-x="1000" 
d="M916 1282h-560v-496h518v-151h-518v-635h-168v1434h728v-152z" />
    <glyph glyph-name="G" unicode="G" horiz-adv-x="1405" 
d="M1260 98q-216 -122 -480 -122q-307 0 -496.5 198t-189.5 524q0 333 210.5 546.5t533.5 213.5q234 0 393 -76v-186q-174 110 -412 110q-241 0 -395 -166t-154 -430q0 -272 143 -427.5t388 -155.5q168 0 291 67v402h-314v152h482v-650z" />
    <glyph glyph-name="H" unicode="H" horiz-adv-x="1454" 
d="M1266 0h-168v654h-742v-654h-168v1434h168v-629h742v629h168v-1434z" />
    <glyph glyph-name="I" unicode="I" horiz-adv-x="545" 
d="M496 1434v-144h-140v-1146h140v-144h-448v144h140v1146h-140v144h448z" />
    <glyph glyph-name="J" unicode="J" horiz-adv-x="731" 
d="M555 514q0 -255 -108 -396.5t-289 -141.5q-84 0 -138 24v166q54 -39 140 -39q227 0 227 385v922h168v-920z" />
    <glyph glyph-name="K" unicode="K" horiz-adv-x="1188" 
d="M1186 0h-234l-554 656q-31 37 -38 50h-4v-706h-168v1434h168v-674h4q14 22 38 49l536 625h209l-615 -688z" />
    <glyph glyph-name="L" unicode="L" horiz-adv-x="964" 
d="M932 0h-744v1434h168v-1282h576v-152z" />
    <glyph glyph-name="M" unicode="M" horiz-adv-x="1839" 
d="M1650 0h-167v962q0 114 14 279h-4q-24 -97 -43 -139l-490 -1102h-82l-489 1094q-21 48 -43 147h-4q8 -86 8 -281v-960h-162v1434h222l440 -1000q51 -115 66 -172h6q43 118 69 176l449 996h210v-1434z" />
    <glyph glyph-name="N" unicode="N" horiz-adv-x="1532" 
d="M1344 0h-206l-738 1143q-28 43 -46 90h-6q8 -46 8 -197v-1036h-168v1434h218l718 -1125q45 -70 58 -96h4q-10 62 -10 211v1010h168v-1434z" />
    <glyph glyph-name="O" unicode="O" horiz-adv-x="1544" 
d="M766 -24q-305 0 -488.5 201t-183.5 523q0 346 187 552t509 206q297 0 478.5 -200t181.5 -523q0 -351 -186 -555t-498 -204zM778 1306q-226 0 -367 -163t-141 -428t137.5 -426.5t358.5 -161.5q236 0 372 154t136 431q0 284 -132 439t-364 155z" />
    <glyph glyph-name="P" unicode="P" horiz-adv-x="1147" 
d="M356 542v-542h-168v1434h394q230 0 356.5 -112t126.5 -316t-140.5 -334t-379.5 -130h-189zM356 1282v-588h176q174 0 265.5 79.5t91.5 224.5q0 284 -336 284h-197z" />
    <glyph glyph-name="Q" unicode="Q" horiz-adv-x="1544" 
d="M756 -24q-64 0 -130 12.5t-128 38t-118.5 63t-102.5 87.5q-183 200 -183 523q0 347 186 552q188 206 514 206q292 0 474 -200t182 -523q0 -136 -30.5 -256.5t-92.5 -217.5t-156 -164.5t-222 -96.5q52 -56 97.5 -99t91 -72.5t94.5 -44.5t108 -15q16 0 35 1.5t38.5 5
t37.5 8t33 10.5v-162q-16 -5 -36 -8.5t-40.5 -6t-40.5 -4t-37 -1.5q-96 0 -172.5 28.5t-143 78t-128.5 115.5t-130 142zM778 1306q-226 0 -367 -163t-141 -428q0 -264 137 -427q138 -161 359 -161q236 0 372 154t136 431q0 285 -132 439q-132 155 -364 155z" />
    <glyph glyph-name="R" unicode="R" horiz-adv-x="1225" 
d="M1216 0h-200l-240 402q-33 56 -64 95.5t-63.5 64.5t-70 36.5t-84.5 11.5h-138v-610h-168v1434h428q94 0 173.5 -23.5t138 -71.5t91.5 -119.5t33 -167.5q0 -75 -22.5 -137.5t-64 -111.5t-100 -83.5t-131.5 -53.5v-4q36 -16 62.5 -36.5t50.5 -48.5t47.5 -63.5t52.5 -82.5z
M356 1282v-520h228q63 0 116.5 19t92.5 54.5t61 87t22 115.5q0 115 -74.5 179.5t-215.5 64.5h-230z" />
    <glyph glyph-name="S" unicode="S" horiz-adv-x="1088" 
d="M121 58v198q34 -30 81.5 -54t100 -40.5t105.5 -25.5t98 -9q155 0 231.5 57.5t76.5 165.5q0 58 -25.5 101t-70.5 78.5t-106.5 68t-132.5 68.5q-75 38 -140 77t-113 86t-75.5 106.5t-27.5 139.5q0 98 43 170.5t113 119.5t159.5 70t182.5 23q212 0 309 -51v-189
q-127 88 -326 88q-55 0 -110 -11.5t-98 -37.5t-70 -67t-27 -100q0 -55 20.5 -95t60.5 -73t97.5 -64t132.5 -68q77 -38 146 -80t121 -93t82.5 -113t30.5 -142q0 -106 -41.5 -179.5t-112 -119.5t-162.5 -66.5t-194 -20.5q-34 0 -84 5.5t-102 16t-98.5 26t-74.5 34.5z" />
    <glyph glyph-name="T" unicode="T" horiz-adv-x="1073" 
d="M1036 1282h-414v-1282h-168v1282h-413v152h995v-152z" />
    <glyph glyph-name="U" unicode="U" horiz-adv-x="1407" 
d="M1237 580q0 -604 -545 -604q-522 0 -522 581v877h168v-866q0 -441 372 -441q359 0 359 426v881h168v-854z" />
    <glyph glyph-name="V" unicode="V" horiz-adv-x="1272" 
d="M1254 1434l-531 -1434h-185l-520 1434h187l397 -1137q19 -55 29 -127h4q8 60 33 129l405 1135h181z" />
    <glyph glyph-name="W" unicode="W" horiz-adv-x="1913" 
d="M1888 1434l-405 -1434h-197l-295 1048q-19 67 -23 146h-4q-6 -74 -26 -144l-297 -1050h-195l-420 1434h185l305 -1100q19 -69 24 -144h5q5 53 31 144l317 1100h161l304 -1108q16 -57 24 -134h4q4 52 27 138l293 1104h182z" />
    <glyph glyph-name="X" unicode="X" horiz-adv-x="1208" 
d="M1178 0h-205l-330 549q-15 25 -33 71h-4q-10 -23 -34 -71l-340 -549h-206l480 721l-442 713h206l293 -504q29 -50 51 -100h4q32 66 56 104l305 500h193l-451 -711z" />
    <glyph glyph-name="Y" unicode="Y" horiz-adv-x="1132" 
d="M1120 1434l-473 -904v-530h-168v526l-461 908h191l321 -648q6 -12 35 -88h3q10 34 38 88l336 648h178z" />
    <glyph glyph-name="Z" unicode="Z" horiz-adv-x="1168" 
d="M1124 1394l-840 -1242h820v-152h-1071v47l833 1235h-766v152h1024v-40z" />
    <glyph glyph-name="bracketleft" unicode="[" horiz-adv-x="618" 
d="M568 -326h-368v1760h368v-119h-222v-1522h222v-119z" />
    <glyph glyph-name="backslash" unicode="\" horiz-adv-x="776" 
d="M798 -240h-151l-673 1674h155z" />
    <glyph glyph-name="bracketright" unicode="]" horiz-adv-x="618" 
d="M420 -326h-367v119h221v1522h-221v119h367v-1760z" />
    <glyph glyph-name="asciicircum" unicode="^" horiz-adv-x="1401" 
d="M1174 624h-150l-332 619h-6l-309 -619h-147l422 834h65z" />
    <glyph glyph-name="underscore" unicode="_" horiz-adv-x="850" 
d="M850 -297h-850v119h850v-119z" />
    <glyph glyph-name="grave" unicode="`" horiz-adv-x="549" 
d="M471 1218h-127l-262 328h168z" />
    <glyph glyph-name="a" unicode="a" horiz-adv-x="1042" 
d="M899 0h-164v160h-4q-107 -184 -315 -184q-153 0 -239.5 81t-86.5 215q0 287 338 334l307 43q0 261 -211 261q-185 0 -334 -126v168q151 96 348 96q361 0 361 -382v-666zM735 518l-247 -34q-114 -16 -172 -56.5t-58 -143.5q0 -75 53.5 -122.5t142.5 -47.5
q122 0 201.5 85.5t79.5 216.5v102z" />
    <glyph glyph-name="b" unicode="b" horiz-adv-x="1204" 
d="M334 148h-4v-148h-164v1516h164v-672h4q121 204 354 204q197 0 308.5 -137.5t111.5 -368.5q0 -257 -125 -411.5t-342 -154.5q-203 0 -307 172zM330 561v-143q0 -127 82.5 -215.5t209.5 -88.5q149 0 233.5 114t84.5 317q0 171 -79 268t-214 97q-143 0 -230 -99.5
t-87 -249.5z" />
    <glyph glyph-name="c" unicode="c" horiz-adv-x="946" 
d="M864 47q-118 -71 -280 -71q-219 0 -353.5 142.5t-134.5 369.5q0 253 145 406.5t387 153.5q135 0 238 -50v-168q-114 80 -244 80q-157 0 -257.5 -112.5t-100.5 -295.5q0 -180 94.5 -284t253.5 -104q134 0 252 89v-156z" />
    <glyph glyph-name="d" unicode="d" horiz-adv-x="1206" 
d="M1040 0h-164v174h-4q-114 -198 -352 -198q-193 0 -308.5 137.5t-115.5 374.5q0 254 128 407t341 153q211 0 307 -166h4v634h164v-1516zM876 463v151q0 124 -82 210t-208 86q-150 0 -236 -110t-86 -304q0 -177 82.5 -279.5t221.5 -102.5q137 0 222.5 99t85.5 250z" />
    <glyph glyph-name="e" unicode="e" horiz-adv-x="1071" 
d="M989 471h-723q4 -171 92 -264t242 -93q173 0 318 114v-154q-135 -98 -357 -98q-217 0 -341 139.5t-124 392.5q0 239 135.5 389.5t336.5 150.5t311 -130t110 -361v-86zM821 610q-1 142 -68.5 221t-187.5 79q-116 0 -197 -83t-100 -217h553z" />
    <glyph glyph-name="f" unicode="f" horiz-adv-x="641" 
d="M672 1372q-48 27 -109 27q-172 0 -172 -217v-158h240v-140h-240v-884h-163v884h-175v140h175v166q0 161 93 254.5t232 93.5q75 0 119 -18v-148z" />
    <glyph glyph-name="g" unicode="g" horiz-adv-x="1206" 
d="M1040 82q0 -564 -540 -564q-190 0 -332 72v164q173 -96 330 -96q378 0 378 402v112h-4q-117 -196 -352 -196q-191 0 -307.5 136.5t-116.5 366.5q0 261 125.5 415t343.5 154q207 0 307 -166h4v142h164v-942zM876 463v151q0 122 -82.5 209t-205.5 87q-152 0 -238 -110.5
t-86 -309.5q0 -171 82.5 -273.5t218.5 -102.5q138 0 224.5 98t86.5 251z" />
    <glyph glyph-name="h" unicode="h" horiz-adv-x="1159" 
d="M1016 0h-164v590q0 320 -238 320q-120 0 -202 -92.5t-82 -237.5v-580h-164v1516h164v-662h4q118 194 336 194q346 0 346 -417v-631z" />
    <glyph glyph-name="i" unicode="i" horiz-adv-x="496" 
d="M250 1284q-44 0 -75 30t-31 76t31 76.5t75 30.5q45 0 76.5 -30.5t31.5 -76.5q0 -44 -31.5 -75t-76.5 -31zM330 0h-164v1024h164v-1024z" />
    <glyph glyph-name="j" unicode="j" horiz-adv-x="496" 
d="M330 43q0 -252 -101.5 -388.5t-290.5 -136.5q-70 0 -136 32v153q74 -45 140 -45q224 0 224 358v1008h164v-981zM250 1284q-44 0 -75 30t-31 76t31 76.5t75 30.5q45 0 76.5 -30.5t31.5 -76.5q0 -44 -31.5 -75t-76.5 -31z" />
    <glyph glyph-name="k" unicode="k" horiz-adv-x="1018" 
d="M1016 0h-230l-452 492h-4v-492h-164v1516h164v-961h4l430 469h215l-475 -494z" />
    <glyph glyph-name="l" unicode="l" horiz-adv-x="496" 
d="M330 0h-164v1516h164v-1516z" />
    <glyph glyph-name="m" unicode="m" horiz-adv-x="1764" 
d="M1620 0h-164v588q0 170 -52.5 246t-176.5 76q-105 0 -178.5 -96t-73.5 -230v-584h-164v608q0 302 -233 302q-108 0 -178 -90.5t-70 -235.5v-584h-164v1024h164v-162h4q109 186 318 186q105 0 183 -58.5t107 -153.5q114 212 340 212q338 0 338 -417v-631z" />
    <glyph glyph-name="n" unicode="n" horiz-adv-x="1159" 
d="M1016 0h-164v584q0 326 -238 326q-123 0 -203.5 -92.5t-80.5 -233.5v-584h-164v1024h164v-170h4q116 194 336 194q168 0 257 -108.5t89 -313.5v-626z" />
    <glyph glyph-name="o" unicode="o" horiz-adv-x="1200" 
d="M594 -24q-227 0 -362.5 143.5t-135.5 380.5q0 258 141 403t381 145q229 0 357.5 -141t128.5 -391q0 -245 -138.5 -392.5t-371.5 -147.5zM606 910q-158 0 -250 -107.5t-92 -296.5q0 -182 93 -287t249 -105q159 0 244.5 103t85.5 293q0 192 -85.5 296t-244.5 104z" />
    <glyph glyph-name="p" unicode="p" horiz-adv-x="1204" 
d="M334 148h-4v-619h-164v1495h164v-180h4q121 204 354 204q198 0 309 -137.5t111 -368.5q0 -257 -125 -411.5t-342 -154.5q-199 0 -307 172zM330 561v-143q0 -127 82.5 -215.5t209.5 -88.5q149 0 233.5 114t84.5 317q0 171 -79 268t-214 97q-143 0 -230 -99.5t-87 -249.5z
" />
    <glyph glyph-name="q" unicode="q" horiz-adv-x="1206" 
d="M1040 -471h-164v647h-4q-107 -200 -350 -200q-193 0 -309.5 137.5t-116.5 374.5q0 255 128 407.5t344 152.5q210 0 304 -166h4v142h164v-1495zM876 461v149q0 126 -82.5 213t-209.5 87q-148 0 -234 -109.5t-86 -308.5q0 -177 83 -277.5t214 -100.5q144 0 229.5 98.5
t85.5 248.5z" />
    <glyph glyph-name="r" unicode="r" horiz-adv-x="712" 
d="M700 858q-43 33 -124 33q-105 0 -175.5 -99t-70.5 -270v-522h-164v1024h164v-211h4q35 108 107 168.5t161 60.5q64 0 98 -14v-170z" />
    <glyph glyph-name="s" unicode="s" horiz-adv-x="869" 
d="M104 37v176q134 -99 295 -99q216 0 216 144q0 41 -18.5 69.5t-50 50.5t-74 39.5t-91.5 36.5q-68 27 -119.5 54.5t-86 62t-52 78.5t-17.5 103q0 72 33 127.5t88 93t125.5 56.5t145.5 19q133 0 238 -46v-166q-113 74 -260 74q-46 0 -83 -10.5t-63.5 -29.5t-41 -45.5
t-14.5 -58.5q0 -40 14.5 -67t42.5 -48t68 -38t91 -37q68 -26 122 -53.5t92 -62t58.5 -79.5t20.5 -107q0 -76 -33.5 -132t-89.5 -93t-129 -55t-153 -18q-158 0 -274 61z" />
    <glyph glyph-name="t" unicode="t" horiz-adv-x="694" 
d="M641 10q-58 -32 -153 -32q-269 0 -269 300v606h-176v140h176v250l164 53v-303h258v-140h-258v-577q0 -103 35 -147t116 -44q62 0 107 34v-140z" />
    <glyph glyph-name="u" unicode="u" horiz-adv-x="1159" 
d="M994 0h-164v162h-4q-102 -186 -316 -186q-366 0 -366 436v612h163v-586q0 -324 248 -324q120 0 197.5 88.5t77.5 231.5v590h164v-1024z" />
    <glyph glyph-name="v" unicode="v" horiz-adv-x="981" 
d="M971 1024l-408 -1024h-161l-388 1024h180l260 -744q29 -82 36 -143h4q10 77 32 139l272 748h173z" />
    <glyph glyph-name="w" unicode="w" horiz-adv-x="1480" 
d="M1456 1024l-307 -1024h-170l-211 733q-12 42 -16 95h-4q-3 -36 -21 -93l-229 -735h-164l-310 1024h172l212 -770q10 -35 14 -92h8q3 44 18 94l236 768h150l212 -772q10 -37 15 -92h8q2 39 17 92l208 772h162z" />
    <glyph glyph-name="x" unicode="x" horiz-adv-x="940" 
d="M914 1024l-344 -518l338 -506h-191l-201 332q-19 31 -45 78h-4q-5 -9 -47 -78l-205 -332h-189l349 502l-334 522h191l198 -350q22 -39 43 -80h4l256 430h181z" />
    <glyph glyph-name="y" unicode="y" horiz-adv-x="991" 
d="M981 1024l-471 -1188q-126 -318 -354 -318q-64 0 -107 13v147q53 -18 97 -18q124 0 186 148l82 194l-400 1022h182l277 -788q5 -15 21 -78h6q5 24 20 76l291 790h170z" />
    <glyph glyph-name="z" unicode="z" horiz-adv-x="926" 
d="M880 977l-606 -837h600v-140h-841v51l606 833h-549v140h790v-47z" />
    <glyph glyph-name="braceleft" unicode="{" horiz-adv-x="618" 
d="M555 -326q-307 4 -307 310v300q0 202 -156 212v116q156 10 156 216v292q0 310 307 314v-128q-159 -4 -159 -198v-293q0 -210 -150 -258v-4q150 -45 150 -256v-289q0 -111 35.5 -158.5t123.5 -49.5v-126z" />
    <glyph glyph-name="bar" unicode="|" horiz-adv-x="490" 
d="M320 -482h-148v2048h148v-2048z" />
    <glyph glyph-name="braceright" unicode="}" horiz-adv-x="618" 
d="M528 496q-156 -10 -156 -212v-300q0 -306 -306 -310v126q87 2 123.5 50t36.5 158v289q0 211 149 256v4q-149 48 -149 258v293q0 194 -160 198v128q306 -4 306 -314v-292q0 -206 156 -216v-116z" />
    <glyph glyph-name="asciitilde" unicode="~" horiz-adv-x="1401" 
d="M1194 750q-7 -148 -80.5 -229t-199.5 -81q-109 0 -265 109q-97 67 -159 67q-140 0 -146 -176h-135q5 143 79.5 226.5t201.5 83.5q106 0 235 -88q132 -90 197 -90q61 0 98 49t39 129h135z" />
    <glyph glyph-name="Adieresis" unicode="&#xc4;" horiz-adv-x="1321" 
d="M1298 0h-186l-152 402h-608l-143 -402h-187l550 1434h174zM905 553l-225 611q-11 30 -22 96h-4q-10 -61 -23 -96l-223 -611h497zM840 1565q-40 0 -69 28t-29 71q0 42 28 70t68 28q42 0 71 -28.5t29 -69.5t-28 -70t-70 -29zM456 1565q-42 0 -71.5 29.5t-29.5 69.5
q0 42 28.5 70t69.5 28t71 -28.5t30 -69.5t-29 -70t-69 -29z" />
    <glyph glyph-name="Aring" unicode="&#xc5;" horiz-adv-x="1321" 
d="M1298 0h-186l-152 402h-608l-143 -402h-187l529 1378q-101 52 -101 164q0 89 60 144t152 55q88 0 144 -54.5t56 -138.5q0 -112 -96 -166zM656 1659q-50 0 -82 -31.5t-32 -79.5q0 -114 114 -114q48 0 81 33t33 81q0 49 -33 80t-81 31zM905 553l-225 611q-11 30 -22 96h-4
q-10 -61 -23 -96l-223 -611h497z" />
    <glyph glyph-name="Ccedilla" unicode="&#xc7;" horiz-adv-x="1268" 
d="M1164 60q-159 -84 -396 -84q-306 0 -490 197t-184 517q0 344 207 556t525 212q204 0 338 -59v-179q-154 86 -340 86q-247 0 -400.5 -165t-153.5 -441q0 -262 143.5 -417.5t376.5 -155.5q216 0 374 96v-163zM960 -256q0 -176 -275 -176q-38 0 -65 2v90q43 -6 70 -6
q141 0 141 90q0 78 -129 78q-10 0 -41 -4v182h108v-104q88 0 139.5 -40t51.5 -112z" />
    <glyph glyph-name="Eacute" unicode="&#xc9;" horiz-adv-x="1036" 
d="M948 0h-760v1434h728v-152h-560v-477h518v-151h-518v-502h592v-152zM803 1893l-262 -328h-127l223 328h166z" />
    <glyph glyph-name="Ntilde" unicode="&#xd1;" horiz-adv-x="1532" 
d="M1344 0h-206l-738 1143q-28 43 -46 90h-6q8 -46 8 -197v-1036h-168v1434h218l718 -1125q45 -70 58 -96h4q-10 62 -10 211v1010h168v-1434zM1113 1803q0 -105 -48 -171.5t-130 -66.5q-71 0 -162 52q-77 43 -119 43q-88 0 -88 -113h-94q0 107 48 171.5t134 64.5
q65 0 149 -52q74 -44 128 -44q84 0 84 116h98z" />
    <glyph glyph-name="Odieresis" unicode="&#xd6;" horiz-adv-x="1544" 
d="M766 -24q-305 0 -488.5 201t-183.5 523q0 346 187 552t509 206q297 0 478.5 -200t181.5 -523q0 -351 -186 -555t-498 -204zM778 1306q-226 0 -367 -163t-141 -428t137.5 -426.5t358.5 -161.5q236 0 372 154t136 431q0 284 -132 439t-364 155zM968 1563q-40 0 -69 28
t-29 71q0 42 28 70t68 28q42 0 71 -28.5t29 -69.5t-28 -70t-70 -29zM584 1563q-42 0 -71.5 29.5t-29.5 69.5q0 42 28.5 70t69.5 28t71 -28.5t30 -69.5t-29 -70t-69 -29z" />
    <glyph glyph-name="Udieresis" unicode="&#xdc;" horiz-adv-x="1407" 
d="M1237 580q0 -604 -545 -604q-522 0 -522 581v877h168v-866q0 -441 372 -441q359 0 359 426v881h168v-854zM895 1567q-40 0 -69 28t-29 71q0 42 28 70t68 28q42 0 71 -28.5t29 -69.5t-28 -70t-70 -29zM511 1567q-42 0 -71.5 29.5t-29.5 69.5q0 42 28.5 70t69.5 28
t71 -28.5t30 -69.5t-29 -70t-69 -29z" />
    <glyph glyph-name="aacute" unicode="&#xe1;" horiz-adv-x="1042" 
d="M899 0h-164v160h-4q-107 -184 -315 -184q-153 0 -239.5 81t-86.5 215q0 287 338 334l307 43q0 261 -211 261q-185 0 -334 -126v168q151 96 348 96q361 0 361 -382v-666zM735 518l-247 -34q-114 -16 -172 -56.5t-58 -143.5q0 -75 53.5 -122.5t142.5 -47.5
q122 0 201.5 85.5t79.5 216.5v102zM757 1546l-262 -328h-127l223 328h166z" />
    <glyph glyph-name="agrave" unicode="&#xe0;" horiz-adv-x="1042" 
d="M899 0h-164v160h-4q-107 -184 -315 -184q-153 0 -239.5 81t-86.5 215q0 287 338 334l307 43q0 261 -211 261q-185 0 -334 -126v168q151 96 348 96q361 0 361 -382v-666zM735 518l-247 -34q-114 -16 -172 -56.5t-58 -143.5q0 -75 53.5 -122.5t142.5 -47.5
q122 0 201.5 85.5t79.5 216.5v102zM674 1218h-127l-262 328h168z" />
    <glyph glyph-name="acircumflex" unicode="&#xe2;" horiz-adv-x="1042" 
d="M899 0h-164v160h-4q-107 -184 -315 -184q-153 0 -239.5 81t-86.5 215q0 287 338 334l307 43q0 261 -211 261q-185 0 -334 -126v168q151 96 348 96q361 0 361 -382v-666zM735 518l-247 -34q-114 -16 -172 -56.5t-58 -143.5q0 -75 53.5 -122.5t142.5 -47.5
q122 0 201.5 85.5t79.5 216.5v102zM806 1218h-122l-164 230l-165 -230h-113l215 332h133z" />
    <glyph glyph-name="adieresis" unicode="&#xe4;" horiz-adv-x="1042" 
d="M899 0h-164v160h-4q-107 -184 -315 -184q-153 0 -239.5 81t-86.5 215q0 287 338 334l307 43q0 261 -211 261q-185 0 -334 -126v168q151 96 348 96q361 0 361 -382v-666zM735 518l-247 -34q-114 -16 -172 -56.5t-58 -143.5q0 -75 53.5 -122.5t142.5 -47.5
q122 0 201.5 85.5t79.5 216.5v102zM708 1218q-40 0 -69 28t-29 71q0 42 28 70t68 28q42 0 71 -28.5t29 -69.5t-28 -70t-70 -29zM324 1218q-42 0 -71.5 29.5t-29.5 69.5q0 42 28.5 70t69.5 28t71 -28.5t30 -69.5t-29 -70t-69 -29z" />
    <glyph glyph-name="atilde" unicode="&#xe3;" horiz-adv-x="1042" 
d="M899 0h-164v160h-4q-107 -184 -315 -184q-153 0 -239.5 81t-86.5 215q0 287 338 334l307 43q0 261 -211 261q-185 0 -334 -126v168q151 96 348 96q361 0 361 -382v-666zM735 518l-247 -34q-114 -16 -172 -56.5t-58 -143.5q0 -75 53.5 -122.5t142.5 -47.5
q122 0 201.5 85.5t79.5 216.5v102zM844 1458q0 -105 -48 -171.5t-130 -66.5q-71 0 -162 52q-77 43 -119 43q-88 0 -88 -113h-94q0 107 48 171.5t134 64.5q65 0 149 -52q74 -44 128 -44q84 0 84 116h98z" />
    <glyph glyph-name="aring" unicode="&#xe5;" horiz-adv-x="1042" 
d="M899 0h-164v160h-4q-107 -184 -315 -184q-153 0 -239.5 81t-86.5 215q0 287 338 334l307 43q0 261 -211 261q-185 0 -334 -126v168q151 96 348 96q361 0 361 -382v-666zM735 518l-247 -34q-114 -16 -172 -56.5t-58 -143.5q0 -75 53.5 -122.5t142.5 -47.5
q122 0 201.5 85.5t79.5 216.5v102zM517 1176q-87 0 -144.5 52.5t-57.5 137.5q0 90 59 144t150 54q89 0 146 -54t57 -138t-61 -140t-149 -56zM517 1483q-48 0 -80 -32.5t-32 -80.5q0 -112 112 -112q50 0 83 32t33 80q0 49 -33 81t-83 32z" />
    <glyph glyph-name="ccedilla" unicode="&#xe7;" horiz-adv-x="946" 
d="M864 47q-118 -71 -280 -71q-219 0 -353.5 142.5t-134.5 369.5q0 253 145 406.5t387 153.5q135 0 238 -50v-168q-114 80 -244 80q-157 0 -257.5 -112.5t-100.5 -295.5q0 -180 94.5 -284t253.5 -104q134 0 252 89v-156zM778 -256q0 -176 -275 -176q-38 0 -65 2v90
q43 -6 70 -6q141 0 141 90q0 78 -129 78q-10 0 -41 -4v182h108v-104q88 0 139.5 -40t51.5 -112z" />
    <glyph glyph-name="eacute" unicode="&#xe9;" horiz-adv-x="1071" 
d="M989 471h-723q4 -171 92 -264t242 -93q173 0 318 114v-154q-135 -98 -357 -98q-217 0 -341 139.5t-124 392.5q0 239 135.5 389.5t336.5 150.5t311 -130t110 -361v-86zM821 610q-1 142 -68.5 221t-187.5 79q-116 0 -197 -83t-100 -217h553zM795 1546l-262 -328h-127
l223 328h166z" />
    <glyph glyph-name="egrave" unicode="&#xe8;" horiz-adv-x="1071" 
d="M989 471h-723q4 -171 92 -264t242 -93q173 0 318 114v-154q-135 -98 -357 -98q-217 0 -341 139.5t-124 392.5q0 239 135.5 389.5t336.5 150.5t311 -130t110 -361v-86zM821 610q-1 142 -68.5 221t-187.5 79q-116 0 -197 -83t-100 -217h553zM725 1218h-127l-262 328h168z
" />
    <glyph glyph-name="ecircumflex" unicode="&#xea;" horiz-adv-x="1071" 
d="M989 471h-723q4 -171 92 -264t242 -93q173 0 318 114v-154q-135 -98 -357 -98q-217 0 -341 139.5t-124 392.5q0 239 135.5 389.5t336.5 150.5t311 -130t110 -361v-86zM821 610q-1 142 -68.5 221t-187.5 79q-116 0 -197 -83t-100 -217h553zM840 1218h-122l-164 230
l-165 -230h-113l215 332h133z" />
    <glyph glyph-name="edieresis" unicode="&#xeb;" horiz-adv-x="1071" 
d="M989 471h-723q4 -171 92 -264t242 -93q173 0 318 114v-154q-135 -98 -357 -98q-217 0 -341 139.5t-124 392.5q0 239 135.5 389.5t336.5 150.5t311 -130t110 -361v-86zM821 610q-1 142 -68.5 221t-187.5 79q-116 0 -197 -83t-100 -217h553zM746 1218q-40 0 -69 28t-29 71
q0 42 28 70t68 28q42 0 71 -28.5t29 -69.5t-28 -70t-70 -29zM362 1218q-42 0 -71.5 29.5t-29.5 69.5q0 42 28.5 70t69.5 28t71 -28.5t30 -69.5t-29 -70t-69 -29z" />
    <glyph glyph-name="iacute" unicode="&#xed;" horiz-adv-x="496" 
d="M330 0h-164v1024h164v-1024zM477 1546l-262 -328h-127l223 328h166z" />
    <glyph glyph-name="igrave" unicode="&#xec;" horiz-adv-x="496" 
d="M330 0h-164v1024h164v-1024zM369 1218h-127l-262 328h168z" />
    <glyph glyph-name="icircumflex" unicode="&#xee;" horiz-adv-x="496" 
d="M330 0h-164v1024h164v-1024zM519 1218h-122l-164 230l-165 -230h-113l215 332h133z" />
    <glyph glyph-name="idieresis" unicode="&#xef;" horiz-adv-x="496" 
d="M330 0h-164v1024h164v-1024zM430 1218q-40 0 -69 28t-29 71q0 42 28 70t68 28q42 0 71 -28.5t29 -69.5t-28 -70t-70 -29zM46 1218q-42 0 -71.5 29.5t-29.5 69.5q0 42 28.5 70t69.5 28t71 -28.5t30 -69.5t-29 -70t-69 -29z" />
    <glyph glyph-name="ntilde" unicode="&#xf1;" horiz-adv-x="1159" 
d="M1016 0h-164v584q0 326 -238 326q-123 0 -203.5 -92.5t-80.5 -233.5v-584h-164v1024h164v-170h4q116 194 336 194q168 0 257 -108.5t89 -313.5v-626zM908 1458q0 -105 -48 -171.5t-130 -66.5q-71 0 -162 52q-77 43 -119 43q-88 0 -88 -113h-94q0 107 48 171.5t134 64.5
q65 0 149 -52q74 -44 128 -44q84 0 84 116h98z" />
    <glyph glyph-name="oacute" unicode="&#xf3;" horiz-adv-x="1200" 
d="M594 -24q-227 0 -362.5 143.5t-135.5 380.5q0 258 141 403t381 145q229 0 357.5 -141t128.5 -391q0 -245 -138.5 -392.5t-371.5 -147.5zM606 910q-158 0 -250 -107.5t-92 -296.5q0 -182 93 -287t249 -105q159 0 244.5 103t85.5 293q0 192 -85.5 296t-244.5 104zM846 1546
l-262 -328h-127l223 328h166z" />
    <glyph glyph-name="ograve" unicode="&#xf2;" horiz-adv-x="1200" 
d="M594 -24q-227 0 -362.5 143.5t-135.5 380.5q0 258 141 403t381 145q229 0 357.5 -141t128.5 -391q0 -245 -138.5 -392.5t-371.5 -147.5zM606 910q-158 0 -250 -107.5t-92 -296.5q0 -182 93 -287t249 -105q159 0 244.5 103t85.5 293q0 192 -85.5 296t-244.5 104zM747 1218
h-127l-262 328h168z" />
    <glyph glyph-name="ocircumflex" unicode="&#xf4;" horiz-adv-x="1200" 
d="M594 -24q-227 0 -362.5 143.5t-135.5 380.5q0 258 141 403t381 145q229 0 357.5 -141t128.5 -391q0 -245 -138.5 -392.5t-371.5 -147.5zM606 910q-158 0 -250 -107.5t-92 -296.5q0 -182 93 -287t249 -105q159 0 244.5 103t85.5 293q0 192 -85.5 296t-244.5 104zM885 1218
h-122l-164 230l-165 -230h-113l215 332h133z" />
    <glyph glyph-name="odieresis" unicode="&#xf6;" horiz-adv-x="1200" 
d="M594 -24q-227 0 -362.5 143.5t-135.5 380.5q0 258 141 403t381 145q229 0 357.5 -141t128.5 -391q0 -245 -138.5 -392.5t-371.5 -147.5zM606 910q-158 0 -250 -107.5t-92 -296.5q0 -182 93 -287t249 -105q159 0 244.5 103t85.5 293q0 192 -85.5 296t-244.5 104zM793 1218
q-40 0 -69 28t-29 71q0 42 28 70t68 28q42 0 71 -28.5t29 -69.5t-28 -70t-70 -29zM409 1218q-42 0 -71.5 29.5t-29.5 69.5q0 42 28.5 70t69.5 28t71 -28.5t30 -69.5t-29 -70t-69 -29z" />
    <glyph glyph-name="otilde" unicode="&#xf5;" horiz-adv-x="1200" 
d="M594 -24q-227 0 -362.5 143.5t-135.5 380.5q0 258 141 403t381 145q229 0 357.5 -141t128.5 -391q0 -245 -138.5 -392.5t-371.5 -147.5zM606 910q-158 0 -250 -107.5t-92 -296.5q0 -182 93 -287t249 -105q159 0 244.5 103t85.5 293q0 192 -85.5 296t-244.5 104zM931 1458
q0 -105 -48 -171.5t-130 -66.5q-71 0 -162 52q-77 43 -119 43q-88 0 -88 -113h-94q0 107 48 171.5t134 64.5q65 0 149 -52q74 -44 128 -44q84 0 84 116h98z" />
    <glyph glyph-name="uacute" unicode="&#xfa;" horiz-adv-x="1159" 
d="M994 0h-164v162h-4q-102 -186 -316 -186q-366 0 -366 436v612h163v-586q0 -324 248 -324q120 0 197.5 88.5t77.5 231.5v590h164v-1024zM840 1546l-262 -328h-127l223 328h166z" />
    <glyph glyph-name="ugrave" unicode="&#xf9;" horiz-adv-x="1159" 
d="M994 0h-164v162h-4q-102 -186 -316 -186q-366 0 -366 436v612h163v-586q0 -324 248 -324q120 0 197.5 88.5t77.5 231.5v590h164v-1024zM705 1218h-127l-262 328h168z" />
    <glyph glyph-name="ucircumflex" unicode="&#xfb;" horiz-adv-x="1159" 
d="M994 0h-164v162h-4q-102 -186 -316 -186q-366 0 -366 436v612h163v-586q0 -324 248 -324q120 0 197.5 88.5t77.5 231.5v590h164v-1024zM854 1218h-122l-164 230l-165 -230h-113l215 332h133z" />
    <glyph glyph-name="udieresis" unicode="&#xfc;" horiz-adv-x="1159" 
d="M994 0h-164v162h-4q-102 -186 -316 -186q-366 0 -366 436v612h163v-586q0 -324 248 -324q120 0 197.5 88.5t77.5 231.5v590h164v-1024zM770 1218q-40 0 -69 28t-29 71q0 42 28 70t68 28q42 0 71 -28.5t29 -69.5t-28 -70t-70 -29zM386 1218q-42 0 -71.5 29.5t-29.5 69.5
q0 42 28.5 70t69.5 28t71 -28.5t30 -69.5t-29 -70t-69 -29z" />
    <glyph glyph-name="dagger" unicode="&#x2020;" horiz-adv-x="768" 
d="M728 893l-262 30l-40 -694h-76l-40 694l-262 -30v150l302 -20l-40 410h156l-40 -410l302 20v-150z" />
    <glyph glyph-name="degree" unicode="&#xb0;" horiz-adv-x="772" 
d="M385 897q-115 0 -196 81.5t-81 197.5q0 115 80 194.5t195 79.5q116 0 197.5 -80t81.5 -194q0 -116 -81 -197.5t-196 -81.5zM385 1333q-65 0 -111 -46t-46 -111q0 -67 45 -114.5t110 -47.5t112 48t47 114t-46 111.5t-111 45.5z" />
    <glyph glyph-name="cent" unicode="&#xa2;" 
d="M952 209q-96 -59 -221 -69v-189h-125v191q-193 22 -307.5 161t-114.5 346q0 219 114.5 366.5t307.5 184.5v213h125v-203q123 -2 221 -51v-172q-101 71 -221 78v-785q122 12 221 86v-157zM606 291v761q-119 -31 -186.5 -133.5t-67.5 -252.5t68 -249t186 -126z" />
    <glyph glyph-name="sterling" unicode="&#xa3;" 
d="M1006 0h-900v135q218 69 218 313v187h-197v141h197v254q0 188 109 308t282 120q117 0 213 -41v-155q-100 57 -211 57q-229 0 -229 -307v-236h296v-141h-296v-156q0 -242 -193 -339h711v-140z" />
    <glyph glyph-name="section" unicode="&#xa7;" horiz-adv-x="918" 
d="M658 416q90 -74 90 -186q0 -132 -100 -214t-255 -82q-131 0 -239 56v158q130 -74 250 -74q84 0 130 39.5t46 99.5q0 53 -35.5 89.5t-180.5 113.5q-233 122 -233 317q0 163 147 244q-106 83 -106 223q0 127 93.5 209t246.5 82q130 0 219 -43v-158q-101 62 -223 62
q-168 0 -168 -144q0 -55 40.5 -100t203.5 -123q223 -107 223 -293q0 -170 -149 -276zM398 905q-101 -51 -101 -159q0 -72 56.5 -126.5t197.5 -117.5q88 68 88 172q0 72 -52.5 122.5t-188.5 108.5z" />
    <glyph glyph-name="bullet" unicode="&#x2022;" horiz-adv-x="832" 
d="M418 408q-104 0 -179 73t-75 177q0 103 75 178.5t179 75.5t177 -75t73 -179t-73 -177t-177 -73z" />
    <glyph glyph-name="paragraph" unicode="&#xb6;" horiz-adv-x="938" 
d="M834 1331h-128v-1331h-106v1331h-158v-1331h-108v903q-108 0 -179 76t-71 191q0 117 74.5 190.5t181.5 73.5h494v-103z" />
    <glyph glyph-name="germandbls" unicode="&#xdf;" horiz-adv-x="1114" 
d="M461 2v160q75 -48 170 -48q109 0 177 73.5t68 197.5q0 150 -100 243.5t-278 113.5v130q118 20 194 103t76 197q0 108 -55 167.5t-152 59.5q-231 0 -231 -309v-1090h-164v1114q0 192 110 308t296 116q166 0 265 -95t99 -251q0 -127 -75 -228t-195 -140v-5
q378 -75 378 -426q0 -177 -111 -297t-294 -120q-101 0 -178 26z" />
    <glyph glyph-name="sfthyphen" unicode="&#xad;" horiz-adv-x="819" 
d="M690 506h-546v129h546v-129z" />
    <glyph glyph-name="registered" unicode="&#xae;" horiz-adv-x="1823" 
d="M912 -33q-311 0 -530.5 219.5t-219.5 530.5t219.5 530.5t530.5 219.5q310 0 529.5 -219.5t219.5 -530.5t-219.5 -530.5t-529.5 -219.5zM912 1379q-274 0 -468 -194t-194 -468t194 -467.5t468 -193.5t467.5 193.5t193.5 467.5t-193.5 468t-467.5 194zM1276 248h-162
l-104 229q-79 172 -170 172h-88v-401h-133v954h268q167 0 257.5 -70t90.5 -190q0 -98 -63.5 -167t-177.5 -93v-4q79 -17 157 -176zM752 1088v-326h143q197 0 197 164q0 88 -53 125t-168 37h-119z" />
    <glyph glyph-name="copyright" unicode="&#xa9;" horiz-adv-x="1823" 
d="M912 -33q-311 0 -530.5 219.5t-219.5 530.5t219.5 530.5t530.5 219.5q310 0 529.5 -219.5t219.5 -530.5t-219.5 -530.5t-529.5 -219.5zM912 1379q-274 0 -468 -194t-194 -468t194 -467.5t468 -193.5t467.5 193.5t193.5 467.5t-193.5 468t-467.5 194zM1213 266
q-114 -69 -269 -69q-209 0 -350 141.5t-141 353.5q0 247 144.5 394t375.5 147q132 0 236 -53v-150q-95 72 -254 72q-156 0 -257.5 -106.5t-101.5 -286.5q0 -174 103.5 -279.5t263.5 -105.5q146 0 250 78v-136z" />
    <glyph glyph-name="trademark" unicode="&#x2122;" horiz-adv-x="1583" 
d="M1396 772h-108v478h-4l-219 -478h-59l-214 478h-4v-478h-102v662h127l225 -496h4l228 496h126v-662zM602 1336h-209v-564h-111v564h-206v98h526v-98z" />
    <glyph glyph-name="acute" unicode="&#xb4;" horiz-adv-x="578" 
d="M524 1546l-262 -328h-127l223 328h166z" />
    <glyph glyph-name="dieresis" unicode="&#xa8;" horiz-adv-x="848" 
d="M610 1218q-40 0 -69 28t-29 71q0 42 28 70t68 28q42 0 71 -28.5t29 -69.5t-28 -70t-70 -29zM226 1218q-42 0 -71.5 29.5t-29.5 69.5q0 42 28.5 70t69.5 28t71 -28.5t30 -69.5t-29 -70t-69 -29z" />
    <glyph glyph-name="AE" unicode="&#xc6;" horiz-adv-x="1762" 
d="M1667 0h-759v402h-510l-193 -402h-195l700 1434h924v-152h-559v-477h519v-151h-519v-502h592v-152zM908 553v729h-95l-346 -729h441z" />
    <glyph glyph-name="Oslash" unicode="&#xd8;" horiz-adv-x="1544" 
d="M324 131l-152 -182l-78 65l158 191q-158 195 -158 495q0 343 186.5 550.5t509.5 207.5q234 0 402 -129l135 162l78 -63l-139 -166q184 -200 184 -527q0 -351 -186 -555t-498 -204q-266 0 -442 155zM1090 1204q-126 102 -312 102q-227 0 -367.5 -164t-140.5 -427
q0 -223 98 -373zM1157 1130l-725 -866q131 -137 334 -137q236 0 372 154.5t136 430.5q0 260 -117 418z" />
    <glyph glyph-name="plusminus" unicode="&#xb1;" horiz-adv-x="1401" 
d="M1172 652h-404v-404h-131v404h-405v132h405v404h131v-404h404v-132zM1172 0h-940v133h940v-133z" />
    <glyph glyph-name="yen" unicode="&#xa5;" 
d="M1042 1434l-356 -656h285v-139h-334v-207h334v-139h-334v-293h-164v293h-344v139h344v207h-344v139h291l-352 656h192l250 -514q28 -58 47 -111h4q13 42 49 117l252 508h180z" />
    <glyph glyph-name="mu1" unicode="&#xb5;" horiz-adv-x="1182" 
d="M1048 0h-170q-23 72 -23 168h-5q-84 -191 -279 -191q-167 0 -238 123h-4v-496h-163v1420h163v-626q0 -127 69 -202t180 -75q121 0 196.5 86t75.5 231v586h166v-759q0 -188 32 -265z" />
    <glyph glyph-name="ordfeminine" unicode="&#xaa;" horiz-adv-x="803" 
d="M688 717h-129v100h-4q-79 -119 -231 -119q-109 0 -175.5 59.5t-66.5 152.5q0 202 248 235l229 31q0 168 -151 168q-136 0 -254 -86v128q111 70 266 70q126 0 197 -72t71 -202v-465zM559 1075l-180 -25q-168 -23 -168 -134q0 -51 38.5 -83t102.5 -32q82 0 144.5 61
t62.5 146v67z" />
    <glyph glyph-name="ordmasculine" unicode="&#xba;" horiz-adv-x="882" 
d="M436 696q-167 0 -262.5 100.5t-95.5 272.5q0 181 102.5 283t271.5 102q163 0 257 -99.5t94 -270.5q0 -178 -99.5 -283t-267.5 -105zM444 1344q-106 0 -168.5 -72t-62.5 -199q0 -124 59.5 -194t169.5 -70q105 0 166.5 71.5t61.5 194.5q0 126 -60.5 197.5t-165.5 71.5z" />
    <glyph glyph-name="ae" unicode="&#xe6;" horiz-adv-x="1704" 
d="M1622 471h-725q3 -171 91 -264t241 -93q177 0 321 114v-154q-132 -98 -358 -98q-270 0 -383 229h-4q-145 -229 -387 -229q-153 0 -240.5 80.5t-87.5 215.5q0 300 383 324l262 16q0 298 -215 298q-175 0 -330 -122v164q148 96 348 96q232 0 300 -200h4q116 200 356 200
q202 0 313 -130.5t111 -362.5v-84zM1454 610q-2 144 -68.5 222t-185.5 78q-116 0 -199 -82t-102 -218h555zM735 410v63l-203 -12q-139 -8 -207.5 -49t-68.5 -136q0 -73 53 -117.5t143 -44.5q119 0 201 84.5t82 211.5z" />
    <glyph glyph-name="oslash" unicode="&#xf8;" horiz-adv-x="1200" 
d="M1174 1048l-168 -180q98 -138 98 -346q0 -252 -139 -399t-371 -147q-192 0 -318 102l-145 -160l-82 78l149 164q-102 137 -102 340q0 258 142 403t382 145q184 0 308 -98l162 176zM821 836q-79 74 -215 74q-159 0 -250.5 -107.5t-91.5 -296.5q0 -132 50 -224zM891 742
l-508 -552q87 -76 221 -76q163 0 248.5 104t85.5 294q0 134 -47 230z" />
    <glyph glyph-name="questiondown" unicode="&#xbf;" horiz-adv-x="918" 
d="M625 630q9 -26 16 -67.5t7 -82.5q0 -64 -25.5 -115.5t-63.5 -96.5t-83 -86.5t-83 -84t-63.5 -89t-25.5 -102.5q0 -48 18.5 -85t50.5 -62t74 -37.5t89 -12.5q169 0 293 133v-176q-153 -96 -317 -96q-76 0 -143 20t-117 59.5t-79.5 98.5t-29.5 137q0 74 26 132t65.5 106.5
t85.5 90.5t85.5 83.5t65.5 86.5t26 99q0 46 -11 83.5t-22 63.5h161zM535 1046q44 0 78 -32q33 -31 33 -78q0 -46 -33 -78q-33 -33 -78 -33t-78 33q-33 32 -33 78q0 47 33 78q34 32 78 32z" />
    <glyph glyph-name="nonbreakingspace" unicode="&#xa0;" horiz-adv-x="561" 
 />
    <glyph glyph-name="exclamdown" unicode="&#xa1;" horiz-adv-x="582" 
d="M291 826q-46 0 -78.5 32t-32.5 78t32.5 78t78.5 32q45 0 78 -32t33 -78t-33 -78t-78 -32zM379 -406h-172l19 1030h134z" />
    <glyph glyph-name="logicalnot" unicode="&#xac;" horiz-adv-x="1401" 
d="M1172 254h-132v430h-808v133h940v-563z" />
    <glyph glyph-name="florin" unicode="&#x192;" 
d="M952 1266q-48 28 -108 28q-146 0 -170 -160l-31 -208h166v-138h-187l-90 -648q-58 -418 -348 -418q-31 0 -90 16v143q36 -21 86 -21q150 0 190 292l91 636h-103v138h124l28 219q17 131 104.5 210t221.5 79q64 0 116 -19v-149z" />
    <glyph glyph-name="guillemotleft" unicode="&#xab;" horiz-adv-x="1036" 
d="M946 200h-168l-299 336l299 344h170l-307 -344zM557 200h-166l-299 336l299 344h166l-303 -344z" />
    <glyph glyph-name="guillemotright" unicode="&#xbb;" horiz-adv-x="1036" 
d="M948 538l-301 -338h-165l302 338l-302 342h165zM559 538l-299 -338h-170l308 338l-308 342h170z" />
    <glyph glyph-name="ellipsis" unicode="&#x2026;" horiz-adv-x="1501" 
d="M1252 -18q-46 0 -77.5 32t-31.5 78t31.5 79.5t77.5 33.5q45 0 77.5 -33.5t32.5 -79.5t-32.5 -78t-77.5 -32zM750 -18q-46 0 -78.5 32t-32.5 78t32.5 79.5t78.5 33.5q45 0 77.5 -33.5t32.5 -79.5t-32.5 -78t-77.5 -32zM248 -18q-46 0 -77 32t-31 78t31 79.5t77 33.5
q45 0 77.5 -33.5t32.5 -79.5t-32 -78t-78 -32z" />
    <glyph glyph-name="Agrave" unicode="&#xc0;" horiz-adv-x="1321" 
d="M1298 0h-186l-152 402h-608l-143 -402h-187l550 1434h174zM905 553l-225 611q-11 30 -22 96h-4q-10 -61 -23 -96l-223 -611h497zM758 1566h-127l-262 328h168z" />
    <glyph glyph-name="Atilde" unicode="&#xc3;" horiz-adv-x="1321" 
d="M1298 0h-186l-152 402h-608l-143 -402h-187l550 1434h174zM905 553l-225 611q-11 30 -22 96h-4q-10 -61 -23 -96l-223 -611h497zM977 1803q0 -105 -48 -171.5t-130 -66.5q-71 0 -162 52q-77 43 -119 43q-88 0 -88 -113h-94q0 107 48 171.5t134 64.5q65 0 149 -52
q74 -44 128 -44q84 0 84 116h98z" />
    <glyph glyph-name="Otilde" unicode="&#xd5;" horiz-adv-x="1544" 
d="M766 -24q-305 0 -488.5 201t-183.5 523q0 346 187 552t509 206q297 0 478.5 -200t181.5 -523q0 -351 -186 -555t-498 -204zM778 1306q-226 0 -367 -163t-141 -428t137.5 -426.5t358.5 -161.5q236 0 372 154t136 431q0 284 -132 439t-364 155zM1103 1802
q0 -105 -48 -171.5t-130 -66.5q-71 0 -162 52q-77 43 -119 43q-88 0 -88 -113h-94q0 107 48 171.5t134 64.5q65 0 149 -52q74 -44 128 -44q84 0 84 116h98z" />
    <glyph glyph-name="OE" unicode="&#x152;" horiz-adv-x="1906" 
d="M1810 0h-720q-16 0 -138 -14q-98 -10 -182 -10q-312 0 -494 201t-182 523q0 346 189.5 552t514.5 206q90 0 178 -10q112 -14 114 -14h688v-152h-560v-477h518v-151h-518v-502h592v-152zM1050 160v1118q-160 28 -268 28q-229 0 -370.5 -166t-141.5 -425q0 -258 139.5 -423
t366.5 -165q116 0 274 33z" />
    <glyph glyph-name="oe" unicode="&#x153;" horiz-adv-x="1900" 
d="M1825 471h-725q3 -171 91.5 -264t242.5 -93q175 0 319 114v-154q-136 -98 -357 -98q-270 0 -382 237h-4q-131 -237 -416 -237q-229 0 -363.5 143t-134.5 379q0 258 142 404t382 146q294 0 402 -235h4q119 235 385 235q196 0 305 -131.5t109 -357.5v-88zM1657 610
q-2 142 -69 221t-183 79q-120 0 -203.5 -85.5t-99.5 -214.5h555zM606 910q-158 0 -250 -108.5t-92 -299.5q0 -180 92 -284t248 -104q159 0 245.5 102.5t86.5 291.5q0 194 -86.5 298t-243.5 104z" />
    <glyph glyph-name="endash" unicode="&#x2013;" horiz-adv-x="1024" 
d="M1024 506h-1024v129h1024v-129z" />
    <glyph glyph-name="emdash" unicode="&#x2014;" horiz-adv-x="2048" 
d="M2048 506h-2048v129h2048v-129z" />
    <glyph glyph-name="quotedblleft" unicode="&#x201c;" horiz-adv-x="772" 
d="M668 1458l-111 -446h-147l141 446h117zM364 1458l-108 -446h-150l140 446h118z" />
    <glyph glyph-name="quotedblright" unicode="&#x201d;" horiz-adv-x="772" 
d="M672 1458l-140 -446h-118l108 446h150zM368 1458l-140 -446h-118l111 446h147z" />
    <glyph glyph-name="quoteleft" unicode="&#x2018;" horiz-adv-x="469" 
d="M364 1458l-108 -446h-150l140 446h118z" />
    <glyph glyph-name="quoteright" unicode="&#x2019;" horiz-adv-x="469" 
d="M368 1458l-140 -446h-118l111 446h147z" />
    <glyph glyph-name="divide" unicode="&#xf7;" horiz-adv-x="1401" 
d="M708 868q-44 0 -74 30.5t-30 74.5q0 45 29 77t75 32q103 0 103 -107q0 -47 -30.5 -77t-72.5 -30zM1172 530h-940v134h940v-134zM704 112q-44 0 -75 30t-31 73q0 45 30 78t76 33q101 0 101 -109q0 -45 -29 -75t-72 -30z" />
    <glyph glyph-name="ydieresis" unicode="&#xff;" horiz-adv-x="991" 
d="M981 1024l-471 -1188q-126 -318 -354 -318q-64 0 -107 13v147q53 -18 97 -18q124 0 186 148l82 194l-400 1022h182l277 -788q5 -15 21 -78h6q5 24 20 76l291 790h170zM689 1218q-40 0 -69 28t-29 71q0 42 28 70t68 28q42 0 71 -28.5t29 -69.5t-28 -70t-70 -29zM305 1218
q-42 0 -71.5 29.5t-29.5 69.5q0 42 28.5 70t69.5 28t71 -28.5t30 -69.5t-29 -70t-69 -29z" />
    <glyph glyph-name="Ydieresis" unicode="&#x178;" horiz-adv-x="1132" 
d="M1120 1434l-473 -904v-530h-168v526l-461 908h191l321 -648q6 -12 35 -88h3q10 34 38 88l336 648h178zM759 1565q-40 0 -69 28t-29 71q0 42 28 70t68 28q42 0 71 -28.5t29 -69.5t-28 -70t-70 -29zM375 1565q-42 0 -71.5 29.5t-29.5 69.5q0 42 28.5 70t69.5 28t71 -28.5
t30 -69.5t-29 -70t-69 -29z" />
    <glyph glyph-name="fraction" unicode="&#x2044;" horiz-adv-x="354" 
d="M690 1434l-858 -1434h-144l859 1434h143z" />
    <glyph glyph-name="fraction" unicode="&#x2215;" horiz-adv-x="354" 
d="M690 1434l-858 -1434h-144l859 1434h143z" />
    <glyph glyph-name="Euro" unicode="&#x20ac;" 
d="M1014 50q-133 -74 -282 -74q-427 0 -509 506h-121v140h108q-4 31 -4 77q0 48 6 108h-110v140h131q51 240 192.5 375.5t343.5 135.5q137 0 245 -56v-162q-114 78 -256 78q-125 0 -222.5 -100.5t-136.5 -270.5h497v-140h-519q-8 -99 -1 -185h520v-140h-504
q72 -366 350 -366q131 0 272 87v-153z" />
    <glyph glyph-name="guilsinglleft" unicode="&#x2039;" horiz-adv-x="647" 
d="M557 200h-166l-299 336l299 344h168l-305 -344z" />
    <glyph glyph-name="guilsinglright" unicode="&#x203a;" horiz-adv-x="647" 
d="M559 538l-301 -338h-166l304 338l-304 342h166z" />
    <glyph glyph-name="daggerdbl" unicode="&#x2021;" horiz-adv-x="768" 
d="M728 519l-302 20l40 -310h-156l40 310l-302 -20v150l262 -30l58 192l-58 192l-262 -30v150l302 -20l-40 310h156l-40 -310l302 20v-150l-262 30l-58 -192l58 -192l262 30v-150z" />
    <glyph glyph-name="periodcentered" unicode="&#xb7;" horiz-adv-x="444" 
d="M223 510q-46 0 -78.5 33t-32.5 79q0 47 32.5 80t78.5 33q47 0 80 -33t33 -80q0 -46 -33 -79t-80 -33z" />
    <glyph glyph-name="periodcentered" unicode="&#x2219;" horiz-adv-x="444" 
d="M223 510q-46 0 -78.5 33t-32.5 79q0 47 32.5 80t78.5 33q47 0 80 -33t33 -80q0 -46 -33 -79t-80 -33z" />
    <glyph glyph-name="quotesinglbase" unicode="&#x201a;" horiz-adv-x="469" 
d="M346 217l-141 -445h-117l110 445h148z" />
    <glyph glyph-name="quotedblbase" unicode="&#x201e;" horiz-adv-x="772" 
d="M649 217l-139 -445h-119l109 445h149zM346 217l-141 -445h-117l110 445h148z" />
    <glyph glyph-name="perthousand" unicode="&#x2030;" horiz-adv-x="2478" 
d="M404 715q-148 0 -236 97.5t-88 260.5q0 178 93 280.5t251 102.5q153 0 237.5 -95t84.5 -267t-94.5 -275.5t-247.5 -103.5zM418 1346q-95 0 -150 -70.5t-55 -193.5q0 -121 54 -188.5t147 -67.5q94 0 147 70t53 194q0 121 -52.5 188.5t-143.5 67.5zM1366 1434l-922 -1444
h-143l921 1444h144zM2056 -22q-148 0 -236 98t-88 260q0 177 94.5 281t249.5 104q153 0 237.5 -95.5t84.5 -269.5q0 -171 -94 -274.5t-248 -103.5zM2070 608q-96 0 -150 -70.5t-54 -193.5q0 -120 53.5 -187t146.5 -67q95 0 148 70.5t53 193.5q0 121 -53 187.5t-144 66.5z
M1258 -22q-148 0 -236 98t-88 260q0 178 94 281.5t250 103.5q152 0 237 -96t85 -269q0 -171 -94.5 -274.5t-247.5 -103.5zM1272 608q-96 0 -150.5 -70t-54.5 -194q0 -119 54 -186.5t147 -67.5q94 0 147 70.5t53 193.5q0 122 -52.5 188t-143.5 66z" />
    <glyph glyph-name="Acircumflex" unicode="&#xc2;" horiz-adv-x="1321" 
d="M1298 0h-186l-152 402h-608l-143 -402h-187l550 1434h174zM905 553l-225 611q-11 30 -22 96h-4q-10 -61 -23 -96l-223 -611h497zM927 1565h-122l-164 230l-165 -230h-113l215 332h133z" />
    <glyph glyph-name="Ecircumflex" unicode="&#xca;" horiz-adv-x="1036" 
d="M948 0h-760v1434h728v-152h-560v-477h518v-151h-518v-502h592v-152zM827 1567h-122l-164 230l-165 -230h-113l215 332h133z" />
    <glyph glyph-name="Aacute" unicode="&#xc1;" horiz-adv-x="1321" 
d="M1298 0h-186l-152 402h-608l-143 -402h-187l550 1434h174zM905 553l-225 611q-11 30 -22 96h-4q-10 -61 -23 -96l-223 -611h497zM867 1894l-262 -328h-127l223 328h166z" />
    <glyph glyph-name="Edieresis" unicode="&#xcb;" horiz-adv-x="1036" 
d="M948 0h-760v1434h728v-152h-560v-477h518v-151h-518v-502h592v-152zM749 1566q-40 0 -69 28t-29 71q0 42 28 70t68 28q42 0 71 -28.5t29 -69.5t-28 -70t-70 -29zM365 1566q-42 0 -71.5 29.5t-29.5 69.5q0 42 28.5 70t69.5 28t71 -28.5t30 -69.5t-29 -70t-69 -29z" />
    <glyph glyph-name="Egrave" unicode="&#xc8;" horiz-adv-x="1036" 
d="M948 0h-760v1434h728v-152h-560v-477h518v-151h-518v-502h592v-152zM703 1566h-127l-262 328h168z" />
    <glyph glyph-name="Iacute" unicode="&#xcd;" horiz-adv-x="545" 
d="M496 1434v-144h-140v-1146h140v-144h-448v144h140v1146h-140v144h448zM509 1894l-262 -328h-127l223 328h166z" />
    <glyph glyph-name="Icircumflex" unicode="&#xce;" horiz-adv-x="545" 
d="M496 1434v-144h-140v-1146h140v-144h-448v144h140v1146h-140v144h448zM560 1567h-122l-164 230l-165 -230h-113l215 332h133z" />
    <glyph glyph-name="Idieresis" unicode="&#xcf;" horiz-adv-x="545" 
d="M496 1434v-144h-140v-1146h140v-144h-448v144h140v1146h-140v144h448zM470 1566q-40 0 -69 28t-29 71q0 42 28 70t68 28q42 0 71 -28.5t29 -69.5t-28 -70t-70 -29zM86 1566q-42 0 -71.5 29.5t-29.5 69.5q0 42 28.5 70t69.5 28t71 -28.5t30 -69.5t-29 -70t-69 -29z" />
    <glyph glyph-name="Igrave" unicode="&#xcc;" horiz-adv-x="545" 
d="M496 1434v-144h-140v-1146h140v-144h-448v144h140v1146h-140v144h448zM416 1566h-127l-262 328h168z" />
    <glyph glyph-name="Oacute" unicode="&#xd3;" horiz-adv-x="1544" 
d="M766 -24q-305 0 -488.5 201t-183.5 523q0 346 187 552t509 206q297 0 478.5 -200t181.5 -523q0 -351 -186 -555t-498 -204zM778 1306q-226 0 -367 -163t-141 -428t137.5 -426.5t358.5 -161.5q236 0 372 154t136 431q0 284 -132 439t-364 155zM1028 1894l-262 -328h-127
l223 328h166z" />
    <glyph glyph-name="Ocircumflex" unicode="&#xd4;" horiz-adv-x="1544" 
d="M766 -24q-305 0 -488.5 201t-183.5 523q0 346 187 552t509 206q297 0 478.5 -200t181.5 -523q0 -351 -186 -555t-498 -204zM778 1306q-226 0 -367 -163t-141 -428t137.5 -426.5t358.5 -161.5q236 0 372 154t136 431q0 284 -132 439t-364 155zM1063 1566h-122l-164 230
l-165 -230h-113l215 332h133z" />
    <glyph glyph-name="Ograve" unicode="&#xd2;" horiz-adv-x="1544" 
d="M766 -24q-305 0 -488.5 201t-183.5 523q0 346 187 552t509 206q297 0 478.5 -200t181.5 -523q0 -351 -186 -555t-498 -204zM778 1306q-226 0 -367 -163t-141 -428t137.5 -426.5t358.5 -161.5q236 0 372 154t136 431q0 284 -132 439t-364 155zM880 1566h-127l-262 328h168
z" />
    <glyph glyph-name="Uacute" unicode="&#xda;" horiz-adv-x="1407" 
d="M1237 580q0 -604 -545 -604q-522 0 -522 581v877h168v-866q0 -441 372 -441q359 0 359 426v881h168v-854zM960 1893l-262 -328h-127l223 328h166z" />
    <glyph glyph-name="Ucircumflex" unicode="&#xdb;" horiz-adv-x="1407" 
d="M1237 580q0 -604 -545 -604q-522 0 -522 581v877h168v-866q0 -441 372 -441q359 0 359 426v881h168v-854zM987 1567h-122l-164 230l-165 -230h-113l215 332h133z" />
    <glyph glyph-name="Ugrave" unicode="&#xd9;" horiz-adv-x="1407" 
d="M1237 580q0 -604 -545 -604q-522 0 -522 581v877h168v-866q0 -441 372 -441q359 0 359 426v881h168v-854zM830 1566h-127l-262 328h168z" />
    <glyph glyph-name="dotlessi" unicode="&#x131;" horiz-adv-x="496" 
d="M330 0h-164v1024h164v-1024z" />
    <glyph glyph-name="circumflex" unicode="&#x2c6;" horiz-adv-x="760" 
d="M656 1218h-122l-164 230l-165 -230h-113l215 332h133z" />
    <glyph glyph-name="tilde" unicode="&#x2dc;" horiz-adv-x="690" 
d="M676 1458q0 -105 -48 -171.5t-130 -66.5q-71 0 -162 52q-77 43 -119 43q-88 0 -88 -113h-94q0 107 48 171.5t134 64.5q65 0 149 -52q74 -44 128 -44q84 0 84 116h98z" />
    <glyph glyph-name="ring" unicode="&#x2da;" horiz-adv-x="574" 
d="M284 1176q-87 0 -144.5 52.5t-57.5 137.5q0 90 59 144t150 54q89 0 146 -54t57 -138t-61 -140t-149 -56zM284 1483q-48 0 -80 -32.5t-32 -80.5q0 -112 112 -112q50 0 83 32t33 80q0 49 -33 81t-83 32z" />
    <glyph glyph-name="cedilla" unicode="&#xb8;" horiz-adv-x="420" 
d="M391 -256q0 -176 -275 -176q-38 0 -65 2v90q43 -6 70 -6q141 0 141 90q0 78 -129 78q-10 0 -41 -4v182h108v-104q88 0 139.5 -40t51.5 -112z" />
    <glyph glyph-name="caron" unicode="&#x2c7;" horiz-adv-x="760" 
d="M664 1548l-214 -330h-132l-216 330h115l164 -229l164 229h119z" />
    <glyph glyph-name="Scaron" unicode="&#x160;" horiz-adv-x="1088" 
d="M121 58v198q34 -30 81.5 -54t100 -40.5t105.5 -25.5t98 -9q155 0 231.5 57.5t76.5 165.5q0 58 -25.5 101t-70.5 78.5t-106.5 68t-132.5 68.5q-75 38 -140 77t-113 86t-75.5 106.5t-27.5 139.5q0 98 43 170.5t113 119.5t159.5 70t182.5 23q212 0 309 -51v-189
q-127 88 -326 88q-55 0 -110 -11.5t-98 -37.5t-70 -67t-27 -100q0 -55 20.5 -95t60.5 -73t97.5 -64t132.5 -68q77 -38 146 -80t121 -93t82.5 -113t30.5 -142q0 -106 -41.5 -179.5t-112 -119.5t-162.5 -66.5t-194 -20.5q-34 0 -84 5.5t-102 16t-98.5 26t-74.5 34.5zM826 1898
l-214 -330h-132l-216 330h115l164 -229l164 229h119z" />
    <glyph glyph-name="scaron" unicode="&#x161;" horiz-adv-x="869" 
d="M104 37v176q134 -99 295 -99q216 0 216 144q0 41 -18.5 69.5t-50 50.5t-74 39.5t-91.5 36.5q-68 27 -119.5 54.5t-86 62t-52 78.5t-17.5 103q0 72 33 127.5t88 93t125.5 56.5t145.5 19q133 0 238 -46v-166q-113 74 -260 74q-46 0 -83 -10.5t-63.5 -29.5t-41 -45.5
t-14.5 -58.5q0 -40 14.5 -67t42.5 -48t68 -38t91 -37q68 -26 122 -53.5t92 -62t58.5 -79.5t20.5 -107q0 -76 -33.5 -132t-89.5 -93t-129 -55t-153 -18q-158 0 -274 61zM682 1548l-214 -330h-132l-216 330h115l164 -229l164 229h119z" />
    <glyph glyph-name="Zcaron" unicode="&#x17d;" horiz-adv-x="1168" 
d="M1124 1394l-840 -1242h820v-152h-1071v47l833 1235h-766v152h1024v-40zM900 1895l-214 -330h-132l-216 330h115l164 -229l164 229h119z" />
    <glyph glyph-name="zcaron" unicode="&#x17e;" horiz-adv-x="926" 
d="M880 977l-606 -837h600v-140h-841v51l606 833h-549v140h790v-47zM782 1548l-214 -330h-132l-216 330h115l164 -229l164 229h119z" />
    <glyph glyph-name="brokenbar" unicode="&#xa6;" horiz-adv-x="490" 
d="M320 715h-148v851h148v-851zM320 -482h-148v852h148v-852z" />
    <glyph glyph-name="Eth" unicode="&#xd0;" horiz-adv-x="1436" 
d="M188 0v641h-160v155h160v638h396q758 0 758 -699q0 -334 -210.5 -534.5t-563.5 -200.5h-380zM356 1282v-486h336v-155h-336v-489h214q282 0 439 151t157 428q0 551 -586 551h-224z" />
    <glyph glyph-name="eth" unicode="&#xf0;" horiz-adv-x="1145" 
d="M786 968l4 3q-90 162 -198 266l-299 -151l-51 98l270 131q-118 105 -264 201h221q75 -52 172 -136l289 144l55 -94l-264 -130q327 -307 327 -774q0 -240 -129 -394t-351 -154t-347 140t-125 382q0 243 130 394.5t350 151.5q123 0 210 -78zM582 910q-148 0 -233 -108.5
t-85 -295.5q0 -181 83 -286.5t231 -105.5q139 0 220.5 108t81.5 288q0 400 -298 400z" />
    <glyph glyph-name="Yacute" unicode="&#xdd;" horiz-adv-x="1132" 
d="M1120 1434l-473 -904v-530h-168v526l-461 908h191l321 -648q6 -12 35 -88h3q10 34 38 88l336 648h178zM831 1894l-262 -328h-127l223 328h166z" />
    <glyph glyph-name="yacute" unicode="&#xfd;" horiz-adv-x="991" 
d="M981 1024l-471 -1188q-126 -318 -354 -318q-64 0 -107 13v147q53 -18 97 -18q124 0 186 148l82 194l-400 1022h182l277 -788q5 -15 21 -78h6q5 24 20 76l291 790h170zM762 1546l-262 -328h-127l223 328h166z" />
    <glyph glyph-name="Thorn" unicode="&#xde;" horiz-adv-x="1147" 
d="M356 318v-318h-168v1434h168v-226h226q232 0 357.5 -111.5t125.5 -316.5q0 -204 -141.5 -333t-381.5 -129h-186zM356 1057v-588h176q173 0 265 78t92 223q0 287 -336 287h-197z" />
    <glyph glyph-name="thorn" unicode="&#xfe;" horiz-adv-x="1204" 
d="M334 148h-4v-619h-164v1987h164v-672h4q121 204 354 204q198 0 309 -137.5t111 -368.5q0 -257 -125 -411.5t-342 -154.5q-199 0 -307 172zM330 561v-143q0 -127 82.5 -215.5t209.5 -88.5q149 0 233.5 114t84.5 317q0 171 -79 268t-214 97q-143 0 -230 -99.5t-87 -249.5z
" />
    <glyph glyph-name="multiply" unicode="&#xd7;" horiz-adv-x="1401" 
d="M1134 258l-94 -94l-340 340l-338 -340l-94 94l340 338l-340 340l94 94l338 -340l340 340l94 -94l-340 -340z" />
    <glyph glyph-name="onenumerator" horiz-adv-x="719" 
d="M639 584h-504v112h185v594l-193 -55v125l323 96v-760h189v-112z" />
    <glyph glyph-name="twonumerator" horiz-adv-x="750" 
d="M658 584h-554v114l240 236q104 102 132 156.5t28 109.5q0 58 -38 94.5t-100 36.5q-118 0 -216 -102v149q84 76 235 76q118 0 187 -66t69 -174q0 -153 -205 -348l-164 -156v-4h386v-122z" />
    <glyph glyph-name="threenumerator" horiz-adv-x="750" 
d="M129 616v142q103 -76 217 -76q80 0 126 37.5t46 101.5q0 141 -219 141h-84v118h80q197 0 197 134q0 119 -144 119q-94 0 -186 -69v139q87 51 213 51q113 0 180 -59.5t67 -155.5q0 -151 -145 -205v-4q177 -42 177 -202q0 -117 -85 -191t-227 -74q-137 0 -213 53z" />
    <glyph glyph-name="onehalf" unicode="&#xbd;" horiz-adv-x="1906" 
d="M639 584h-504v112h185v594l-193 -55v125l323 96v-760h189v-112zM1393 1434l-858 -1434h-144l859 1434h143zM1748 1h-554v114l240 236q104 102 132 156.5t28 109.5q0 58 -38 94.5t-100 36.5q-118 0 -216 -102v149q84 76 235 76q118 0 187 -66t69 -174q0 -153 -205 -348
l-164 -156v-4h386v-122z" />
    <glyph glyph-name="onequarter" unicode="&#xbc;" horiz-adv-x="1856" 
d="M639 584h-504v112h185v594l-193 -55v125l323 96v-760h189v-112zM1393 1434l-858 -1434h-144l859 1434h143zM1706 204h-110v-204h-132v204h-393v92l369 554h156v-537h110v-109zM1468 724h-4q-12 -31 -38 -73l-218 -338h256v323q0 32 4 88z" />
    <glyph glyph-name="threequarters" unicode="&#xbe;" horiz-adv-x="1950" 
d="M129 616v142q103 -76 217 -76q80 0 126 37.5t46 101.5q0 141 -219 141h-84v118h80q197 0 197 134q0 119 -144 119q-94 0 -186 -69v139q87 51 213 51q113 0 180 -59.5t67 -155.5q0 -151 -145 -205v-4q177 -42 177 -202q0 -117 -85 -191t-227 -74q-137 0 -213 53z
M1464 1434l-858 -1434h-144l859 1434h143zM1771 204h-110v-204h-132v204h-393v92l369 554h156v-537h110v-109zM1533 724h-4q-12 -31 -38 -73l-218 -338h256v323q0 32 4 88z" />
    <glyph glyph-name="uni00AF" unicode="&#xaf;" horiz-adv-x="850" 
d="M850 1396h-850v120h850v-120z" />
    <glyph glyph-name="uni2015" unicode="&#x2015;" horiz-adv-x="2048" 
d="M2048 506h-2048v129h2048v-129z" />
    <glyph glyph-name="fournumerator" horiz-adv-x="719" 
d="M682 788h-110v-204h-132v204h-393v92l369 554h156v-537h110v-109zM444 1308h-4q-12 -31 -38 -73l-218 -338h256v323q0 32 4 88z" />
    <glyph glyph-name="currency" unicode="&#xa4;" horiz-adv-x="1138" 
d="M1038 354l-92 -96l-137 138q-105 -76 -239 -76q-136 0 -240 76l-138 -138l-92 96l138 134q-76 113 -76 237q0 129 76 237l-138 136l92 96l138 -137q110 77 240 77q129 0 237 -77l139 137l92 -96l-137 -136q78 -112 78 -237q0 -121 -78 -237zM570 1002q-116 0 -195.5 -81
t-79.5 -194t80.5 -194t194.5 -81q113 0 194.5 81t81.5 194t-83 194t-193 81z" />
    <glyph glyph-name="twosuperior" unicode="&#xb2;" horiz-adv-x="750" 
d="M658 884h-554v114l240 236q104 102 132 156.5t28 109.5q0 58 -38 94.5t-100 36.5q-118 0 -216 -102v149q84 76 235 76q118 0 187 -66t69 -174q0 -153 -205 -348l-164 -156v-4h386v-122z" />
    <glyph glyph-name="threesuperior" unicode="&#xb3;" horiz-adv-x="750" 
d="M129 916v142q103 -76 217 -76q80 0 126 37.5t46 101.5q0 141 -219 141h-84v118h80q197 0 197 134q0 119 -144 119q-94 0 -186 -69v139q87 51 213 51q113 0 180 -59.5t67 -155.5q0 -151 -145 -205v-4q177 -42 177 -202q0 -117 -85 -191t-227 -74q-137 0 -213 53z" />
    <glyph glyph-name="onesuperior" unicode="&#xb9;" horiz-adv-x="719" 
d="M639 884h-504v112h185v594l-193 -55v125l323 96v-760h189v-112z" />
    <glyph glyph-name="uni2012" unicode="&#x2012;" 
d="M1014 506h-924v129h924v-129z" />
    <glyph glyph-name="uni1980" unicode="&#x1980;" horiz-adv-x="1741" 
d="M1679 -270q0 -128 -41.5 -224t-111 -159.5t-161.5 -95t-194 -31.5q-62 0 -109.5 3.5t-86 10t-71.5 16.5t-66 23v162q41 -19 77.5 -33.5t74 -24t79.5 -14t96 -4.5q67 0 128.5 23t109 69t76 115.5t28.5 161.5q0 73 -9.5 139.5t-35.5 117t-70.5 80t-115.5 29.5h-51v148h8
q45 0 89.5 24.5t79 70t56 111t21.5 146.5q0 148 -72.5 230.5t-216.5 82.5q-79 0 -142.5 -27.5t-107.5 -79.5t-68 -126.5t-24 -169.5q0 -119 -34.5 -216.5t-96.5 -167t-149.5 -107.5t-194.5 -38q-94 0 -165 17.5t-128 52.5v156q116 -86 266 -86q87 0 150 29t103.5 81
t59.5 122.5t19 154.5q0 88 -17.5 162.5t-57.5 129t-104.5 85t-158.5 30.5q-143 0 -248 -78v162q54 28 116 42t134 14q156 0 265 -59t171 -171q60 110 161.5 169t252.5 59q115 0 200.5 -31t142 -89.5t84.5 -144t28 -194.5q0 -162 -66.5 -264t-189.5 -146q70 -9 123.5 -44.5
t90 -94t55.5 -137t19 -172.5z" />
    <glyph glyph-name="uni1981" unicode="&#x1981;" horiz-adv-x="1741" 
d="M1679 -270q0 -128 -41.5 -224t-111 -159.5t-161.5 -95t-194 -31.5q-62 0 -109.5 3.5t-86 10t-71.5 16.5t-66 23v162q41 -19 77.5 -33.5t74 -24t79.5 -14t96 -4.5q67 0 128.5 23t109 69t76 115.5t28.5 161.5q0 73 -9.5 139.5t-35.5 117t-70.5 80t-115.5 29.5h-51v148h8
q45 0 89.5 24.5t79 70t56 111t21.5 146.5q0 148 -72.5 230.5t-216.5 82.5q-79 0 -142.5 -27.5t-107.5 -79.5t-68 -126.5t-24 -169.5q0 -119 -34.5 -216.5t-96.5 -167t-149.5 -107.5t-194.5 -38q-94 0 -165 17.5t-128 52.5v156q116 -86 266 -86q87 0 150 29t103.5 81
t59.5 122.5t19 154.5q0 88 -17.5 162.5t-57.5 129t-104.5 85t-158.5 30.5q-143 0 -248 -78v162q54 28 116 42t134 14q156 0 265 -59t171 -171q60 110 161.5 169t252.5 59q115 0 200.5 -31t142 -89.5t84.5 -144t28 -194.5q0 -162 -66.5 -264t-189.5 -146q70 -9 123.5 -44.5
t90 -94t55.5 -137t19 -172.5zM1158 1218h-122l-164 230l-165 -230h-113l215 332h133z" />
    <glyph glyph-name="uni1982" unicode="&#x1982;" horiz-adv-x="1868" 
d="M866 641q0 71 -23 122t-62 83.5t-90.5 47.5t-108.5 15q-78 0 -137.5 -30t-99.5 -84t-60.5 -128.5t-20.5 -164.5t21.5 -161.5t60 -122t91.5 -77t116 -26.5q77 0 136.5 21.5t113.5 66.5v-156q-56 -35 -119.5 -53.5t-138.5 -18.5q-102 0 -184.5 37.5t-141.5 107t-91 167
t-32 217.5t31 220.5t92.5 172.5t154 112t214.5 40q58 0 114.5 -15.5t104.5 -44t84.5 -68t54.5 -87.5h4q17 48 53 87.5t84 68t105 44t115 15.5q122 0 210 -36.5t144.5 -106t83.5 -171t27 -231.5q0 -119 -32 -216.5t-91.5 -167t-144 -107.5t-189.5 -38q-146 0 -250 70v156
q53 -44 113 -65t135 -21q74 0 129 29t91.5 81t54.5 122.5t18 154.5q0 88 -15 162.5t-50 129t-92.5 85t-143.5 30.5q-58 0 -108 -15t-87 -47.5t-58.5 -83.5t-21.5 -122h-164z" />
    <glyph glyph-name="uni1983" unicode="&#x1983;" horiz-adv-x="928" 
d="M440 -780q-9 0 -24.5 0.5t-30.5 1.5q-18 1 -37 2v143q11 -3 36.5 -5.5t51.5 -2.5q67 0 117.5 31t84.5 88t51.5 136t17.5 175q0 105 -19.5 183.5t-44.5 123.5q-66 -63 -146 -102t-169 -39q-50 0 -95 16t-79 47.5t-54 78.5t-20 108q0 64 22.5 110t58 76t79.5 44t88 14
t86 -10t81 -28t74.5 -42t65.5 -52q23 39 37 106t14 148q0 72 -20.5 133.5t-61.5 107t-101.5 71.5t-140.5 26q-173 0 -278 -78v162q27 14 56.5 24.5t65 17.5t78 10.5t95.5 3.5q109 0 196.5 -31.5t149 -91.5t94.5 -147.5t33 -200.5q0 -67 -10 -123.5t-26 -102t-36.5 -81.5
t-40.5 -62q26 -32 49.5 -74t42.5 -93.5t30 -114t11 -136.5q0 -120 -28.5 -224t-83.5 -181t-135.5 -121.5t-184.5 -44.5zM336 90q62 0 123.5 32t109.5 83q-52 49 -113 78.5t-120 29.5q-60 0 -87.5 -30t-27.5 -78q0 -23 6 -44t20 -36.5t36 -25t53 -9.5z" />
    <glyph glyph-name="uni1984" unicode="&#x1984;" horiz-adv-x="1810" 
d="M905 680q56 96 103 165.5t96.5 115t106 67t130.5 21.5q75 0 143 -33.5t119 -99.5t81 -163t30 -225q0 -123 -31.5 -225t-90 -175t-141 -113t-185.5 -40q-116 0 -201 52v168q46 -41 95 -60.5t100 -19.5q63 0 115.5 30t90.5 84t59 128.5t21 164.5q0 100 -19 171.5t-49 117
t-67.5 67t-73.5 21.5q-46 0 -85 -27t-77 -77.5t-79 -121.5t-92 -159l-99 -170q-57 -100 -104 -170t-96 -114t-105 -64.5t-131 -20.5t-143 33.5t-119 99.5t-81 163.5t-30 224.5q0 123 31.5 225t90 175t141.5 113t186 40q115 0 200 -52v-168q-46 41 -94.5 60.5t-99.5 19.5
q-63 0 -115.5 -30t-91 -84t-59.5 -128.5t-21 -164.5q0 -100 19.5 -171t50 -117t69.5 -67.5t78 -21.5q38 0 69 17.5t66 61.5t80 118t111 188zM1572 -440q0 -87 -36.5 -151t-115.5 -106t-204.5 -62.5t-302.5 -20.5q-111 0 -197.5 2.5t-154 8t-118 13t-89.5 17.5v129
q83 -28 224.5 -43t336.5 -15q239 0 366 53.5t127 170.5q0 105 -124 155.5t-371 50.5q-151 0 -247.5 -8.5t-152 -24.5t-76 -37.5t-20.5 -47.5q0 -39 30 -57.5t77 -18.5q48 0 98 14t102.5 31t107.5 31t113 14q57 0 93.5 -12.5t58 -32t29.5 -44.5t8 -50q0 -31 -6 -55t-13 -39
h-159q6 12 11 33.5t5 41.5q0 23 -14.5 35t-34.5 12q-33 0 -77.5 -14t-98 -31t-113.5 -31t-125 -14q-58 0 -105.5 11t-81.5 34.5t-52.5 59.5t-18.5 86q0 55 35 97.5t113.5 71t205 43.5t308.5 15q330 0 494.5 -75.5t164.5 -239.5z" />
    <glyph glyph-name="uni1985" unicode="&#x1985;" horiz-adv-x="1245" 
d="M623 909q-102 0 -170.5 -32t-110.5 -89.5t-60 -138t-18 -178.5q0 -82 14 -142.5t39.5 -101.5t60.5 -64.5t77 -31.5v-156q-75 15 -140.5 50t-114 94.5t-76.5 146.5t-28 207q0 128 28 234t90.5 182t163 118t245.5 42t245.5 -42t162.5 -118t90 -182t28 -234q0 -120 -28 -207
t-76 -146.5t-113.5 -94.5t-140.5 -50v156q41 8 76 31.5t60.5 64.5t39.5 101.5t14 142.5q0 98 -18 178.5t-60 138t-110.5 89.5t-169.5 32z" />
    <glyph glyph-name="uni1986" unicode="&#x1986;" horiz-adv-x="1268" 
d="M1171 481q0 -124 -27.5 -213t-76 -149t-114 -94.5t-140.5 -49.5v156q42 8 77 31.5t60.5 66t39.5 105t14 149.5q0 89 -18 166.5t-60 135t-111 91t-170 33.5t-169.5 -32t-110.5 -89.5t-60 -138t-18 -178.5q0 -82 14 -142.5t39.5 -101.5t60.5 -64.5t76 -31.5v-156
q-75 15 -140.5 51t-114 99t-76 157t-27.5 226v557q0 192 36.5 345t112.5 259.5t192.5 163.5t276.5 57q85 0 169.5 -18.5t164.5 -59.5v-170q-80 53 -165.5 81t-166.5 28q-126 0 -213 -50.5t-141 -145t-78 -230.5t-24 -307v-117q30 32 65 59.5t78.5 47t97.5 30.5t121 11
q145 0 245.5 -42.5t162.5 -118.5t90 -180t28 -227z" />
    <glyph glyph-name="uni1987" unicode="&#x1987;" horiz-adv-x="1245" 
d="M356 -23q-63 0 -111.5 23t-81.5 74.5t-50 134.5t-17 203q0 136 28 252.5t90.5 202t163 134t245.5 48.5q156 0 257.5 -59t161 -170.5t83.5 -273.5t24 -368q0 -230 -26 -408t-88 -300.5t-163.5 -186t-253.5 -63.5q-117 0 -211 21t-165 65v162q80 -53 170.5 -81t199.5 -28
q118 0 190.5 52.5t112 155.5t53 256t13.5 355q0 188 -18 326t-60 228t-110.5 133.5t-169.5 43.5q-102 0 -170.5 -35.5t-110.5 -101t-60 -157.5t-18 -205q0 -82 5.5 -136.5t17 -86.5t29.5 -45t44 -13q21 0 38 16.5t34 41t35 53t40 53t48.5 41t60.5 16.5q175 0 175 -241
q0 -36 -2 -68.5t-5 -58.5h-147q5 31 7.5 63.5t2.5 56.5q0 50 -10 72.5t-33 22.5q-13 0 -26 -16.5t-28.5 -40.5t-33.5 -53t-41 -53t-52 -40.5t-67 -16.5z" />
    <glyph glyph-name="uni1988" unicode="&#x1988;" horiz-adv-x="1192" 
d="M177 609.5q-54 51.5 -54 144.5q0 72 32.5 127t92 92.5t142.5 56.5t183 19q119 0 215.5 -34.5t164.5 -101t105.5 -163.5t37.5 -222q0 -132 -38 -235t-109.5 -173.5t-172.5 -107.5t-227 -37q-105 0 -188.5 19.5t-142.5 59.5t-90.5 99.5t-31.5 139.5q0 87 58.5 149t179.5 88
v5q-103 23 -157 74.5zM541 459q-87 0 -140.5 -14t-83 -36.5t-39.5 -50.5t-10 -57q0 -88 71.5 -137t207.5 -49q103 0 175.5 29t118 82.5t66.5 128.5t21 167q0 82 -19.5 153t-62 123t-111.5 81.5t-168 29.5q-73 0 -125 -13t-84.5 -35.5t-47.5 -52.5t-15 -65q0 -45 21 -73
t57 -43.5t84.5 -21t103.5 -5.5h27v-141h-47z" />
    <glyph glyph-name="uni1989" unicode="&#x1989;" horiz-adv-x="1825" 
d="M1563 510q0 88 -18.5 161.5t-59 126t-106 82t-158.5 29.5q-144 0 -248 -78v162q107 56 250 56q122 0 216 -36t158.5 -105t98 -169.5t33.5 -230.5q0 -127 -28 -226.5t-84.5 -167.5t-142 -103.5t-200.5 -35.5q-166 0 -289 65t-192 198q-57 -124 -166.5 -193.5t-257.5 -69.5
q-91 0 -161.5 17.5t-127.5 52.5v156q116 -86 266 -86q87 0 150.5 29t104.5 81t61 122.5t20 154.5q0 88 -18.5 162.5t-59 129t-105.5 85t-159 30.5q-143 0 -248 -78v162q54 28 116 42t134 14q121 0 214 -35.5t157.5 -104t98.5 -167t36 -224.5q0 -94 36.5 -169t96.5 -127
t136 -79.5t155 -27.5q145 0 218 101t73 294z" />
    <glyph glyph-name="uni198A" unicode="&#x198a;" horiz-adv-x="1204" 
d="M1225 1890q24 0 46 -2.5t44 -7.5v-141q-40 12 -82 12q-41 0 -71.5 -11.5t-50.5 -45.5t-30 -94t-10 -158v-914q0 -128 -30.5 -230.5t-94 -174t-162 -110t-235.5 -38.5q-105 0 -188.5 19.5t-142.5 59.5t-90.5 99.5t-31.5 139.5q0 87 58.5 149t179.5 88v5q-103 23 -157 74.5
t-54 144.5q0 74 34 129.5t94 92.5t142.5 55t179.5 18q51 0 103.5 -9t87.5 -24v-148q-40 22 -91 31.5t-126 9.5q-118 0 -185 -44t-67 -128q0 -43 21 -69.5t57 -41.5t84.5 -20.5t103.5 -5.5h27v-141h-47q-87 0 -140.5 -14t-83 -36.5t-39.5 -50.5t-10 -57q0 -88 74.5 -137
t210.5 -49q98 0 165.5 30.5t109.5 85.5t60.5 131t18.5 166v924q0 125 16.5 209t54 135t98.5 72.5t149 21.5z" />
    <glyph glyph-name="uni198B" unicode="&#x198b;" horiz-adv-x="1245" 
d="M893 80q47 -9 88.5 -36.5t72 -74.5t48.5 -114t18 -154q0 -123 -40 -213.5t-109 -150t-161.5 -88.5t-197.5 -29q-62 0 -109.5 3.5t-86 10t-71.5 16.5t-66 23v162q41 -19 77.5 -33.5t74 -24t79.5 -14t96 -4.5q69 0 131.5 19t109 59.5t74 103.5t27.5 152q0 61 -8 114
t-28 92.5t-55.5 62t-90.5 22.5h-39v135h8q42 0 85.5 23t79 70t58.5 118t23 166q0 88 -18 163.5t-60 131t-110.5 87t-169.5 31.5q-102 0 -170.5 -32t-110.5 -89.5t-60 -138t-18 -178.5q0 -82 14 -142.5t39.5 -101.5t60.5 -64.5t77 -31.5v-156q-75 15 -140.5 50t-114 94.5
t-76.5 146.5t-28 207q0 128 28 234t90.5 182t163 118t245.5 42t245.5 -41t162.5 -113t90 -169t28 -208q0 -94 -17 -165.5t-49.5 -124t-80 -88.5t-109.5 -60z" />
    <glyph glyph-name="uni198C" unicode="&#x198c;" horiz-adv-x="1268" 
d="M1143 -299q0 -123 -40.5 -213.5t-109.5 -150t-161.5 -88.5t-196.5 -29q-62 0 -109.5 3.5t-86.5 10t-72 16.5t-66 23v162q42 -19 78 -33.5t73.5 -24t80 -14t96.5 -4.5q69 0 131 19t109 59.5t74.5 103.5t27.5 152q0 61 -8 114t-28 92.5t-55.5 62t-91.5 22.5h-38v135h8
q41 0 84.5 22t79.5 67t59 114.5t23 164.5q0 89 -18 166t-60 134t-111 89.5t-170 32.5t-169.5 -32t-110.5 -89.5t-60 -138t-18 -178.5q0 -82 14 -142.5t39.5 -101.5t60.5 -64.5t76 -31.5v-156q-75 16 -140.5 52t-114 99t-76 156.5t-27.5 225.5v557q0 192 36.5 345
t112.5 259.5t192.5 163.5t276.5 57q85 0 169.5 -18.5t164.5 -59.5v-170q-80 53 -165.5 81t-166.5 28q-126 0 -213 -50.5t-141 -145.5t-78 -232t-24 -311v-111q30 32 65 59.5t78.5 47t97.5 30.5t121 11q145 0 245.5 -43t162.5 -118t90 -177t28 -219q0 -85 -17 -150.5
t-49.5 -115.5t-80 -86t-109.5 -60q47 -9 88.5 -36.5t72.5 -74.5t49 -114t18 -154z" />
    <glyph glyph-name="uni198D" unicode="&#x198d;" horiz-adv-x="1868" 
d="M1030 383q0 -71 21.5 -122t58.5 -83.5t87 -47.5t108 -15q86 0 143.5 30.5t92.5 85t50 129t15 162.5q0 84 -18 154.5t-54.5 122.5t-91.5 81t-129 29q-75 0 -135 -21t-113 -65v156q104 70 250 70q105 0 189.5 -38t144 -107.5t91.5 -167t32 -216.5q0 -130 -27 -231
t-83.5 -171t-144.5 -106.5t-210 -36.5q-58 0 -115 15.5t-105 44t-84 68t-53 87.5h-4q-18 -48 -54.5 -87.5t-84.5 -68t-104.5 -44t-114.5 -15.5q-122 0 -214.5 40t-154 112t-92.5 172.5t-31 220.5t32 217.5t91 167t141.5 107t184.5 37.5q75 0 138.5 -18.5t119.5 -53.5v-156
q-54 45 -113.5 66.5t-136.5 21.5q-63 0 -116 -26.5t-91.5 -77t-60 -122t-21.5 -161.5t20.5 -164.5t60.5 -128.5t99.5 -84t137.5 -30q57 0 108.5 15t90.5 47.5t62 83.5t23 122h164z" />
    <glyph glyph-name="uni198E" unicode="&#x198e;" horiz-adv-x="2081" 
d="M594 -25q-114 0 -206 38t-157 107t-100 165.5t-35 214.5q0 129 36.5 231t104.5 172.5t164.5 108t216.5 37.5q158 0 269 -68t168 -199q62 130 172 198.5t272 68.5q117 0 208 -35.5t152.5 -103.5t93.5 -167t32 -227q0 -130 -33.5 -230.5t-98 -169.5t-158.5 -105t-216 -36
q-143 0 -250 56v162q104 -78 248 -78q93 0 158.5 29.5t106 82t59 126t18.5 161.5q0 96 -21.5 169.5t-61.5 124t-97.5 76t-129.5 25.5q-77 0 -149 -26.5t-128.5 -77t-91 -122.5t-36.5 -163v-4q0 -122 -36 -222t-103 -171t-161 -109.5t-210 -38.5zM606 909q-79 0 -142.5 -27.5
t-107.5 -79.5t-68 -126.5t-24 -169.5q0 -91 24.5 -164t69 -123t107.5 -77t141 -27q161 0 245.5 101.5t84.5 293.5q0 193 -84.5 296t-245.5 103z" />
    <glyph glyph-name="uni198F" unicode="&#x198f;" horiz-adv-x="1204" 
d="M1100 244q0 -227 -27 -415.5t-89 -323.5t-164 -210t-251 -75q-117 0 -211 21t-165 65v162q80 -53 170.5 -81t199.5 -28q79 0 136.5 31.5t98.5 88.5t67 138t41 179t20.5 211.5t5.5 236.5q0 171 -18 296.5t-59 207t-108.5 121.5t-166.5 40q-74 0 -127.5 -14t-88.5 -37.5
t-52 -54.5t-17 -66q0 -45 21 -72.5t57 -41.5t84.5 -18.5t103.5 -4.5h27v-141h-47q-87 0 -140.5 -14t-83 -36.5t-39.5 -50.5t-10 -57q0 -44 19 -78.5t54 -58.5t84 -36.5t110 -12.5q86 0 150 21.5t118 66.5v-156q-28 -18 -56.5 -31.5t-61.5 -22.5t-72 -13.5t-87 -4.5
q-96 0 -175 19.5t-136 59.5t-88 99.5t-31 139.5q0 87 58.5 149t179.5 88v5q-103 23 -157 74.5t-54 144.5q0 72 35 127t96 92.5t143 56.5t176 19q146 0 246.5 -48t162.5 -147t90 -251t28 -359z" />
    <glyph glyph-name="uni1990" unicode="&#x1990;" horiz-adv-x="1810" 
d="M905 680q56 96 103 165.5t96.5 115t106 67t130.5 21.5q75 0 143 -33.5t119 -99.5t81 -163t30 -225q0 -123 -31.5 -225t-90 -175t-141 -113t-185.5 -40q-116 0 -201 52v168q46 -41 95 -60.5t100 -19.5q63 0 115.5 30t90.5 84t59 128.5t21 164.5q0 100 -19 171.5t-49 117
t-67.5 67t-73.5 21.5q-46 0 -85 -27t-77 -77.5t-79 -121.5t-92 -159l-99 -170q-57 -100 -104 -170t-96 -114t-105 -64.5t-131 -20.5t-143 33.5t-119 99.5t-81 163.5t-30 224.5q0 123 31.5 225t90 175t141.5 113t186 40q115 0 200 -52v-168q-46 41 -94.5 60.5t-99.5 19.5
q-63 0 -115.5 -30t-91 -84t-59.5 -128.5t-21 -164.5q0 -100 19.5 -171t50 -117t69.5 -67.5t78 -21.5q38 0 69 17.5t66 61.5t80 118t111 188zM1286 -127q101 0 188 -17t152 -54t102 -95.5t37 -140.5q0 -77 -31.5 -140.5t-97.5 -109.5t-169 -71t-246 -25q-62 0 -133 4.5
t-137.5 13t-122.5 19.5t-89 24v154q42 -19 101 -33.5t124.5 -24t130.5 -14t119 -4.5q105 0 177 15.5t117 43.5t65 67t20 85q0 50 -20.5 87t-64.5 61.5t-112.5 36.5t-164.5 12h-105l66 233h131z" />
    <glyph glyph-name="uni1991" unicode="&#x1991;" horiz-adv-x="1296" 
d="M102 1065q0 192 37 345t113 259.5t192.5 163.5t276.5 57q85 0 169 -18.5t165 -59.5v-170q-81 53 -166.5 81t-165.5 28q-126 0 -213 -50.5t-141.5 -145t-78.5 -230.5t-24 -307v-117q0 -187 24.5 -333.5t79.5 -247t144 -153t219 -52.5q89 0 146 14.5t90 40t46 59.5t13 72
q0 29 -10 57t-39.5 50.5t-82.5 36.5t-140 14h-47v141h26q56 0 104.5 6t84.5 23.5t56.5 48.5t20.5 82q0 29 -12 56t-38 47.5t-66.5 33t-98.5 12.5q-90 0 -153.5 -21t-116.5 -65v156q53 35 117.5 52.5t150.5 17.5q88 0 160 -16.5t123 -50.5t79 -87t28 -125q0 -93 -54 -152.5
t-157 -82.5v-5q120 -26 178.5 -88t58.5 -149q0 -160 -127 -239t-366 -79q-154 0 -268 61t-189 178t-111.5 289t-36.5 394v168z" />
    <glyph glyph-name="uni1992" unicode="&#x1992;" horiz-adv-x="1446" 
d="M1350 457q0 -111 -23.5 -199.5t-69.5 -151t-112 -96t-152 -33.5q-91 0 -158 49.5t-110 145.5h-4q-47 -96 -113 -145.5t-157 -49.5q-83 0 -149 33.5t-111.5 96t-70 151t-24.5 199.5q0 121 33 229t106 189t189.5 128.5t282.5 47.5q173 0 295.5 -47.5t199.5 -128.5
t112.5 -189t35.5 -229zM1182 451q0 86 -26 168t-83 146t-148.5 103t-222.5 39q-125 0 -209.5 -39t-135.5 -103t-73 -146t-22 -168q0 -162 50.5 -246t140.5 -84q95 0 141.5 76t46.5 249v76h164v-76q0 -173 46.5 -249t141.5 -76q88 0 138.5 84.5t50.5 245.5z" />
    <glyph glyph-name="uni1993" unicode="&#x1993;" horiz-adv-x="1032" 
d="M989 -299q0 -123 -40 -213.5t-109 -150t-161.5 -88.5t-197.5 -29q-62 0 -109.5 3.5t-86.5 10t-72 16.5t-66 23v162q42 -19 78 -33.5t74 -24t80 -14t96 -4.5q69 0 131 19t109 59.5t74.5 103.5t27.5 152q0 75 -13 128.5t-38 87.5t-62 50t-86 16q-81 0 -150 2.5t-125 14
t-99 34.5t-72 63t-44 100.5t-15 146.5v272q0 128 28.5 213t85.5 135.5t142.5 71.5t199.5 21q39 0 82.5 -4.5t85.5 -13t80 -21.5t66 -31v-156q-29 22 -65.5 38t-76 26.5t-79.5 16t-78 5.5q-89 0 -148 -16t-94 -51.5t-49 -91t-14 -134.5v-278q0 -78 18.5 -122.5t59 -67
t105.5 -28t159 -5.5q109 0 180 -29t113 -83t58.5 -130.5t16.5 -171.5z" />
    <glyph glyph-name="uni1994" unicode="&#x1994;" horiz-adv-x="1204" 
d="M592 115q101 0 163 32t96 89.5t45 138.5t11 178v899q0 128 18 212.5t56.5 134.5t98.5 70.5t145 20.5q24 0 46 -2.5t44 -7.5v-141q-40 12 -82 12q-48 0 -79.5 -16t-50 -52.5t-25.5 -95.5t-7 -145v-891q0 -128 -20.5 -234t-74 -182t-146.5 -118t-238 -42t-240.5 42
t-152.5 118t-80 182t-23 234q0 120 28 207t76.5 146.5t114 94.5t140.5 50v-156q-42 -8 -77 -31t-60.5 -64.5t-39.5 -102t-14 -142.5q0 -97 13.5 -178t49.5 -138.5t100 -89.5t165 -32z" />
    <glyph glyph-name="uni1995" unicode="&#x1995;" horiz-adv-x="1604" 
d="M1118 909q-68 0 -109.5 -49.5t-41.5 -142.5q0 -49 17 -99t41 -95t51 -81.5t48 -58.5q21 25 47 61t48.5 80t37.5 93t15 100t-12 87.5t-33 60t-49 34t-60 10.5zM532 -25q-95 0 -175 19.5t-138 59.5t-90.5 99.5t-32.5 139.5q0 87 58.5 149t179.5 88v5q-103 23 -157 74.5
t-54 144.5q0 72 33.5 127t92 92.5t139.5 56.5t175 19q26 0 53.5 -2.5t54.5 -6.5t51 -10t42 -14v-148q-40 22 -92 31.5t-123 9.5q-122 0 -188 -44t-66 -128q0 -45 22 -72.5t59.5 -41.5t87.5 -18.5t105 -4.5h19v-141h-47q-87 0 -140.5 -14t-83 -36.5t-39.5 -50.5t-10 -57
q0 -44 19 -78.5t53.5 -58.5t82.5 -36.5t107 -12.5q77 0 144 11.5t127.5 33t115.5 52t107 69.5q-28 32 -63.5 78.5t-67 103.5t-53 122.5t-21.5 135.5q0 75 21.5 134.5t60.5 101.5t94.5 64.5t122.5 22.5q75 0 131 -22.5t94 -64t57 -101t19 -133.5q0 -72 -21 -139t-51.5 -124.5
t-65.5 -103.5t-62 -77q65 -73 126 -113.5t107 -40.5t76 8.5t55 24.5v-140q-29 -15 -61 -21.5t-74 -6.5q-53 0 -97.5 14.5t-84.5 39.5t-77 59t-75 73q-62 -48 -122 -84.5t-127.5 -62t-148 -39t-184.5 -15.5z" />
    <glyph glyph-name="uni1996" unicode="&#x1996;" horiz-adv-x="1810" 
d="M905 680q56 96 103 165.5t96.5 115t106 67t130.5 21.5q75 0 143 -33.5t119 -99.5t81 -163t30 -225q0 -123 -31.5 -225t-90 -175t-141 -113t-185.5 -40q-116 0 -201 52v168q46 -41 95 -60.5t100 -19.5q63 0 115.5 30t90.5 84t59 128.5t21 164.5q0 100 -19 171.5t-49 117
t-67.5 67t-73.5 21.5q-46 0 -85 -27t-77 -77.5t-79 -121.5t-92 -159l-99 -170q-57 -100 -104 -170t-96 -114t-105 -64.5t-131 -20.5t-143 33.5t-119 99.5t-81 163.5t-30 224.5q0 123 31.5 225t90 175t141.5 113t186 40q115 0 200 -52v-168q-46 41 -94.5 60.5t-99.5 19.5
q-63 0 -115.5 -30t-91 -84t-59.5 -128.5t-21 -164.5q0 -100 19.5 -171t50 -117t69.5 -67.5t78 -21.5q38 0 69 17.5t66 61.5t80 118t111 188zM1184 0h131l65 -233h-104q-192 0 -277.5 -48.5t-85.5 -148.5q0 -46 20 -85t65 -67t117.5 -43.5t176.5 -15.5q54 0 119.5 4.5t131 14
t124.5 24t100 33.5v-154q-33 -13 -89 -24t-122.5 -19.5t-137 -13t-132.5 -4.5q-143 0 -246 25t-169.5 71t-98 109.5t-31.5 140.5q0 82 37 140.5t102 95.5t152.5 54t188.5 17z" />
    <glyph glyph-name="uni1997" unicode="&#x1997;" horiz-adv-x="1884" 
d="M866 641q0 71 -23 122t-62 83.5t-90.5 47.5t-108.5 15q-78 0 -137.5 -30t-99.5 -84t-60.5 -128.5t-20.5 -164.5t21.5 -161.5t60 -122t91.5 -77t116 -26.5q77 0 136.5 21.5t113.5 66.5v-156q-56 -35 -119.5 -53.5t-138.5 -18.5q-102 0 -184.5 37.5t-141.5 107t-91 167
t-32 217.5t31 220.5t92.5 172.5t154 112t214.5 40q58 0 114.5 -15.5t104.5 -44t84.5 -68t54.5 -87.5h4q17 48 53 87.5t84 68t105 44t115 15.5q122 0 210 -36.5t144.5 -106t83.5 -171t27 -231.5v-551q0 -172 -43 -308t-130.5 -230.5t-221 -144.5t-314.5 -50q-146 0 -252 24
t-174.5 69t-101.5 109.5t-33 145.5q0 61 25.5 114t78.5 93t136 63t198 23q209 0 316.5 -49.5t107.5 -143.5q0 -41 -20.5 -74t-59 -56t-92.5 -35.5t-121 -12.5q-77 0 -132 8t-101 25v115q52 -23 108 -32t113 -9q72 0 105.5 19.5t33.5 51.5q0 42 -61.5 62t-194.5 20
q-64 0 -115 -9t-85.5 -30t-53 -55.5t-18.5 -85.5q0 -52 20.5 -94.5t67 -72.5t120.5 -46t181 -16q149 0 252.5 47t168 128.5t93.5 191.5t29 235v166q-51 -63 -121 -98.5t-166 -35.5q-146 0 -250 70v156q53 -44 113 -65t135 -21q74 0 129 29t91.5 81t54.5 122.5t18 154.5
q0 88 -15 162.5t-50 129t-92.5 85t-143.5 30.5q-58 0 -108 -15t-87 -47.5t-58.5 -83.5t-21.5 -122h-164z" />
    <glyph glyph-name="uni1998" unicode="&#x1998;" horiz-adv-x="1812" 
d="M86 979q57 35 125.5 52.5t146.5 17.5q158 0 266 -71t162 -196q62 130 172.5 198.5t272.5 68.5q117 0 207.5 -35.5t152 -103.5t93.5 -167t32 -227q0 -130 -33 -230.5t-97.5 -169.5t-159 -105t-216.5 -36q-142 0 -249 56v162q104 -78 247 -78q94 0 159 29.5t105.5 82
t59 126t18.5 161.5q0 96 -21 169.5t-61 124t-97.5 76t-129.5 25.5q-78 0 -150 -26.5t-128 -77t-90.5 -122.5t-36.5 -163q0 -130 -33.5 -231t-98 -171t-158.5 -106.5t-216 -36.5q-73 0 -134.5 14t-115.5 42v162q105 -78 248 -78q94 0 159 30.5t105.5 85t59 129t18.5 162.5
q0 84 -17 154.5t-55 122.5t-98.5 81t-147.5 29q-150 0 -266 -86v156z" />
    <glyph glyph-name="uni1999" unicode="&#x1999;" horiz-adv-x="1245" 
d="M602 -780q-62 0 -109.5 3.5t-86.5 10t-72 16.5t-66 23v162q42 -19 78 -33.5t74 -24t80 -14t96 -4.5q68 0 122.5 22t96 59.5t71 88.5t48 109t27 121t8.5 124q0 17 -2 41t-5.5 48.5t-8.5 48t-11 38.5q-60 -40 -134.5 -62t-184.5 -22q-145 0 -245.5 42t-163 118t-90.5 182
t-28 234q0 120 28 207t76.5 146.5t114 94.5t140.5 50v-156q-42 -8 -77 -31t-60.5 -64.5t-39.5 -102t-14 -142.5q0 -25 1.5 -53t4.5 -54.5t8 -51t11 -42.5q25 27 59.5 52t77.5 43.5t93 30t106 11.5q106 0 188.5 -37.5t142.5 -103.5q7 23 12 49.5t8 53.5t4 53.5t1 48.5
q0 82 -14 142.5t-39.5 102t-60.5 64.5t-76 31v156q75 -15 140.5 -50t113.5 -94.5t76 -146.5t28 -207q0 -115 -20.5 -203t-55.5 -151q32 -66 49 -140.5t17 -177.5q0 -131 -32.5 -250t-98.5 -210t-167 -145t-239 -54zM623 115q50 0 93 9t76.5 22.5t58 29.5t36.5 31
q-17 31 -43.5 57t-61 45t-75.5 30t-86 11q-44 0 -83.5 -12t-73.5 -31t-62 -43t-48 -49q12 -15 34.5 -32.5t55.5 -32.5t77.5 -25t101.5 -10z" />
    <glyph glyph-name="uni199A" unicode="&#x199a;" horiz-adv-x="1188" 
d="M1085 618q0 -149 -32.5 -268t-99 -202.5t-167 -128t-237.5 -44.5q-105 0 -188.5 19.5t-142.5 59.5t-90.5 99.5t-31.5 139.5q0 87 58.5 149t179.5 88v5q-103 23 -157 74.5t-54 144.5q0 74 33.5 129.5t91.5 92.5t135.5 55t165.5 18q69 0 124.5 -9t90.5 -24v-148
q-40 22 -91 31.5t-126 9.5q-118 0 -185 -44t-67 -128q0 -43 21 -69.5t57 -41.5t84.5 -20.5t103.5 -5.5h27v-141h-47q-87 0 -140.5 -14t-83 -36.5t-39.5 -50.5t-10 -57q0 -88 74.5 -137t210.5 -49q98 0 168 37t114.5 103.5t65.5 158t21 200.5q0 46 -1.5 106t-4 125.5t-6 133
t-7.5 128.5t-8 111t-8 80q-24 -5 -59 -13t-80 -15.5t-100 -13t-120 -5.5q-79 0 -146 21t-116 62t-76.5 100.5t-27.5 136.5q0 151 110 235t330 84q58 0 101.5 -2.5t77.5 -6.5t61 -9t51 -10v-152q-49 17 -118.5 32t-172.5 15q-138 0 -202 -44t-64 -144q0 -95 55 -140t150 -45
q53 0 115 4.5t126.5 13t127.5 19.5t118 23q7 -41 13.5 -103.5t13 -135.5t12 -153.5t9.5 -158.5t6.5 -149t2.5 -126z" />
    <glyph glyph-name="uni199B" unicode="&#x199b;" horiz-adv-x="1810" 
d="M905 680q56 96 103 165.5t96.5 115t106 67t130.5 21.5q75 0 143 -33.5t119 -99.5t81 -163t30 -225q0 -123 -31.5 -225t-90 -175t-141 -113t-185.5 -40q-116 0 -201 52v168q46 -41 95 -60.5t100 -19.5q63 0 115.5 30t90.5 84t59 128.5t21 164.5q0 100 -19 171.5t-49 117
t-67.5 67t-73.5 21.5q-46 0 -85 -27t-77 -77.5t-79 -121.5t-92 -159l-99 -170q-57 -100 -104 -170t-96 -114t-105 -64.5t-131 -20.5t-143 33.5t-119 99.5t-81 163.5t-30 224.5q0 123 31.5 225t90 175t141.5 113t186 40q115 0 200 -52v-168q-46 41 -94.5 60.5t-99.5 19.5
q-63 0 -115.5 -30t-91 -84t-59.5 -128.5t-21 -164.5q0 -100 19.5 -171t50 -117t69.5 -67.5t78 -21.5q38 0 69 17.5t66 61.5t80 118t111 188zM315 -467q0 70 39 128.5t113 99.5t180.5 64t241.5 23q134 0 240.5 -23t180.5 -64t113 -99.5t39 -128.5t-39 -127.5t-113 -99
t-180.5 -64t-240.5 -22.5q-135 0 -241.5 22.5t-180.5 64t-113 99t-39 127.5zM473 -465q0 -96 103 -150.5t309 -54.5q205 0 313.5 54.5t108.5 150.5q0 97 -108.5 152t-313.5 55q-206 0 -309 -55t-103 -152z" />
    <glyph glyph-name="uni199C" unicode="&#x199c;" horiz-adv-x="1810" 
d="M905 680q56 96 103 165.5t96.5 115t106 67t130.5 21.5q75 0 143 -33.5t119 -99.5t81 -163t30 -225q0 -123 -31.5 -225t-90 -175t-141 -113t-185.5 -40q-116 0 -201 52v168q46 -41 95 -60.5t100 -19.5q63 0 115.5 30t90.5 84t59 128.5t21 164.5q0 100 -19 171.5t-49 117
t-67.5 67t-73.5 21.5q-46 0 -85 -27t-77 -77.5t-79 -121.5t-92 -159l-99 -170q-57 -100 -104 -170t-96 -114t-105 -64.5t-131 -20.5t-143 33.5t-119 99.5t-81 163.5t-30 224.5q0 123 31.5 225t90 175t141.5 113t186 40q115 0 200 -52v-168q-46 41 -94.5 60.5t-99.5 19.5
q-63 0 -115.5 -30t-91 -84t-59.5 -128.5t-21 -164.5q0 -100 19.5 -171t50 -117t69.5 -67.5t78 -21.5q38 0 69 17.5t66 61.5t80 118t111 188zM1354 55h143v-530q0 -69 -11.5 -125.5t-36.5 -96t-65.5 -61.5t-99.5 -22t-115.5 35.5t-111.5 89t-108 116t-104 116t-100.5 89
t-97.5 35.5q-27 0 -51 -8t-42 -27.5t-29 -53.5t-11 -85q0 -186 178 -186q65 0 104.5 7.5t53.5 10.5v-115q-6 -2 -20.5 -6t-35.5 -8t-47.5 -7t-56.5 -3q-162 0 -247.5 80t-85.5 227q0 72 23 127t61.5 92.5t89 56.5t106.5 19q71 0 135 -35.5t121.5 -89t110 -116t100 -116
t92 -89t86.5 -35.5q22 0 36 17.5t22 44.5t11 61t3 67v524z" />
    <glyph glyph-name="uni199D" unicode="&#x199d;" horiz-adv-x="1890" 
d="M119 1065q0 192 36.5 345t112.5 259.5t192.5 163.5t276.5 57q85 0 169.5 -18.5t164.5 -59.5v-170q-80 53 -165.5 81t-166.5 28q-126 0 -213 -50.5t-141 -145t-78 -230.5t-24 -307v-117q30 32 61.5 59.5t70 47t86.5 30.5t109 11q59 0 115.5 -15.5t104.5 -44t84.5 -68
t54.5 -87.5h4q17 48 53 87.5t84 68t104.5 44t114.5 15.5q122 0 210 -36.5t144.5 -106t83.5 -171t27 -231.5q0 -119 -32 -216.5t-91 -167t-144 -107.5t-190 -38q-146 0 -250 70v156q53 -44 113.5 -65t134.5 -21q75 0 130 29t91 81t54 122.5t18 154.5q0 88 -15 162.5t-50 129
t-92.5 85t-143.5 30.5q-57 0 -107 -15t-87 -47.5t-58.5 -83.5t-21.5 -122h-164q0 71 -23 122t-62 83.5t-90.5 47.5t-109.5 15q-78 0 -137.5 -30t-99.5 -84t-60 -128.5t-20 -164.5t21.5 -161.5t60 -122t91 -77t115.5 -26.5q78 0 137 21.5t113 66.5v-156q-55 -35 -118.5 -53.5
t-139.5 -18.5q-101 0 -184 37.5t-141.5 107t-90.5 167t-32 217.5v561z" />
    <glyph glyph-name="uni199E" unicode="&#x199e;" horiz-adv-x="1200" 
d="M600 -25q-114 0 -207 38t-159 107t-102 165.5t-36 214.5q0 129 36 231t102.5 172.5t162 108t215.5 37.5q115 0 206 -36.5t154.5 -105t97.5 -167.5t34 -224q0 -122 -33 -222t-97.5 -171t-158 -109.5t-215.5 -38.5zM606 909q-79 0 -142.5 -27.5t-107.5 -79.5t-68 -126.5
t-24 -169.5q0 -91 24.5 -164t69 -123t107.5 -77t141 -27q161 0 245.5 101.5t84.5 293.5q0 193 -84.5 296t-245.5 103z" />
    <glyph glyph-name="uni199F" unicode="&#x199f;" horiz-adv-x="1810" 
d="M1004 510q66 -114 111 -188t80 -118t66 -61.5t68 -17.5q39 0 78 21.5t70 67.5t50 117t19 171q0 90 -21 164.5t-59 128.5t-90.5 84t-115.5 30q-51 0 -100 -19.5t-95 -60.5v168q85 52 201 52q103 0 185.5 -40t141 -113t90 -175t31.5 -225q0 -127 -30 -224.5t-81 -163.5
t-119 -99.5t-143 -33.5t-131 20.5t-104.5 64.5t-95.5 114t-105 170l-98 170q-51 88 -92 159t-79.5 121.5t-77.5 77.5t-85 27q-36 0 -73 -21.5t-67.5 -67t-49.5 -117t-19 -171.5q0 -90 21 -164.5t59.5 -128.5t91 -84t115.5 -30q51 0 99.5 19.5t94.5 60.5v-168
q-85 -52 -200 -52q-103 0 -186 40t-141.5 113t-90 175t-31.5 225q0 128 30 225t81 163t119 99.5t143 33.5t131.5 -21.5t106 -67t96.5 -115t102 -165.5z" />
    <glyph glyph-name="uni19A0" unicode="&#x19a0;" horiz-adv-x="1810" 
d="M905 680q56 96 103 165.5t96.5 115t106 67t130.5 21.5q75 0 143 -33.5t119 -99.5t81 -163t30 -225q0 -123 -31.5 -225t-90 -175t-141 -113t-185.5 -40q-116 0 -201 52v168q46 -41 95 -60.5t100 -19.5q63 0 115.5 30t90.5 84t59 128.5t21 164.5q0 100 -19 171.5t-49 117
t-67.5 67t-73.5 21.5q-46 0 -85 -27t-77 -77.5t-79 -121.5t-92 -159l-99 -170q-57 -100 -104 -170t-96 -114t-105 -64.5t-131 -20.5t-143 33.5t-119 99.5t-81 163.5t-30 224.5q0 123 31.5 225t90 175t141.5 113t186 40q115 0 200 -52v-168q-46 41 -94.5 60.5t-99.5 19.5
q-63 0 -115.5 -30t-91 -84t-59.5 -128.5t-21 -164.5q0 -100 19.5 -171t50 -117t69.5 -67.5t78 -21.5q38 0 69 17.5t66 61.5t80 118t111 188z" />
    <glyph glyph-name="uni19A1" unicode="&#x19a1;" horiz-adv-x="965" 
d="M580 266q70 -9 123.5 -45t90 -95t55.5 -140.5t19 -180.5q0 -141 -35.5 -250t-101.5 -183.5t-160 -113t-211 -38.5q-62 0 -109.5 3.5t-86 10t-71.5 16.5t-66 23v162q41 -19 77.5 -33.5t74 -24t79.5 -14t96 -4.5q75 0 138 28t108.5 83t70.5 136t25 187q0 79 -9.5 150.5
t-35.5 126t-70.5 86.5t-115.5 32h-51v136h8q45 0 89.5 18.5t79 56t56 93.5t21.5 131q0 134 -72 209t-217 75q-37 0 -76.5 -5t-78 -15.5t-74 -26t-64.5 -37.5v162q57 32 133.5 47t161.5 15q115 0 200.5 -28.5t142 -83t84.5 -133t28 -179.5q0 -75 -17 -132.5t-50 -101
t-80.5 -73.5t-108.5 -50z" />
    <glyph glyph-name="uni19A2" unicode="&#x19a2;" horiz-adv-x="1245" 
d="M623 115q101 0 169.5 32t110.5 89.5t60 138.5t18 178q0 82 -14 142.5t-39.5 102t-60.5 64.5t-76 31v156q75 -15 140.5 -50t113.5 -94.5t76 -146.5t28 -207q0 -128 -28 -234t-90 -182t-162.5 -118t-245.5 -42t-245.5 42t-163 118t-90.5 182t-28 234q0 120 28 207
t76.5 146.5t114 94.5t140.5 50v-156q-42 -8 -77 -31t-60.5 -64.5t-39.5 -102t-14 -142.5q0 -97 18 -178t60 -138.5t110.5 -89.5t170.5 -32z" />
    <glyph glyph-name="uni19A3" unicode="&#x19a3;" horiz-adv-x="1321" 
d="M1245 4q0 -223 -53 -422.5t-162 -361.5h-182q118 173 173.5 368t55.5 424q0 135 -24 253.5t-65.5 218.5t-97.5 178.5t-120.5 133.5t-133 84t-136.5 29q-58 0 -102.5 -15.5t-74 -41t-44.5 -59t-15 -70.5q0 -41 19.5 -70.5t52 -53t73.5 -43t83.5 -39.5t83.5 -43t73.5 -54.5
t52 -72.5t19.5 -97q0 -50 -15.5 -99t-50.5 -87.5t-93 -62.5t-142 -24q-66 0 -123.5 14.5t-99.5 45.5v158q20 -17 47 -33t57 -28.5t60.5 -20t56.5 -7.5q60 0 96.5 34.5t36.5 99.5q0 51 -33.5 85.5t-84.5 62t-109.5 54t-109.5 63t-84.5 88t-33.5 128.5q0 76 29.5 137
t82.5 103.5t127.5 65t164.5 22.5q103 0 198.5 -36.5t178 -103t150.5 -161t116.5 -210.5t75 -251t26.5 -283z" />
    <glyph glyph-name="uni19A4" unicode="&#x19a4;" horiz-adv-x="932" 
d="M580 266q70 -9 123.5 -45t90 -95t55.5 -140.5t19 -180.5q0 -141 -35.5 -250t-101.5 -183.5t-160 -113t-211 -38.5q-62 0 -109.5 3.5t-86 10t-71.5 16.5t-66 23v162q41 -19 77.5 -33.5t74 -24t79.5 -14t96 -4.5q75 0 138 28t108.5 83t70.5 136t25 187q0 79 -9.5 150.5
t-35.5 126t-70.5 86.5t-115.5 32h-51v136h8q45 0 89.5 18.5t79 56t56 93.5t21.5 131q0 134 -72 209t-217 75q-37 0 -76.5 -5t-78 -15.5t-74 -26t-64.5 -37.5v162q57 32 133.5 47t161.5 15q115 0 200.5 -28.5t142 -83t84.5 -133t28 -179.5q0 -75 -17 -132.5t-50 -101
t-80.5 -73.5t-108.5 -50zM697 1218h-122l-164 230l-165 -230h-113l215 332h133z" />
    <glyph glyph-name="uni19A5" unicode="&#x19a5;" horiz-adv-x="1245" 
d="M623 115q101 0 169.5 32t110.5 89.5t60 138.5t18 178q0 82 -14 142.5t-39.5 102t-60.5 64.5t-76 31v156q75 -15 140.5 -50t113.5 -94.5t76 -146.5t28 -207q0 -128 -28 -234t-90 -182t-162.5 -118t-245.5 -42t-245.5 42t-163 118t-90.5 182t-28 234q0 120 28 207
t76.5 146.5t114 94.5t140.5 50v-156q-42 -8 -77 -31t-60.5 -64.5t-39.5 -102t-14 -142.5q0 -97 18 -178t60 -138.5t110.5 -89.5t170.5 -32zM906 1218h-122l-164 230l-165 -230h-113l215 332h133z" />
    <glyph glyph-name="uni19A6" unicode="&#x19a6;" horiz-adv-x="1868" 
d="M866 641q0 71 -23 122t-62 83.5t-90.5 47.5t-108.5 15q-78 0 -137.5 -30t-99.5 -84t-60.5 -128.5t-20.5 -164.5t21.5 -161.5t60 -122t91.5 -77t116 -26.5q77 0 136.5 21.5t113.5 66.5v-156q-56 -35 -119.5 -53.5t-138.5 -18.5q-102 0 -184.5 37.5t-141.5 107t-91 167
t-32 217.5t31 220.5t92.5 172.5t154 112t214.5 40q58 0 114.5 -15.5t104.5 -44t84.5 -68t54.5 -87.5h4q17 48 53 87.5t84 68t105 44t115 15.5q122 0 210 -36.5t144.5 -106t83.5 -171t27 -231.5q0 -119 -32 -216.5t-91.5 -167t-144 -107.5t-189.5 -38q-146 0 -250 70v156
q53 -44 113 -65t135 -21q74 0 129 29t91.5 81t54.5 122.5t18 154.5q0 88 -15 162.5t-50 129t-92.5 85t-143.5 30.5q-58 0 -108 -15t-87 -47.5t-58.5 -83.5t-21.5 -122h-164zM360 -467q0 70 39 128.5t113 99.5t180.5 64t241.5 23q134 0 240.5 -23t180.5 -64t113 -99.5
t39 -128.5t-39 -127.5t-113 -99t-180.5 -64t-240.5 -22.5q-135 0 -241.5 22.5t-180.5 64t-113 99t-39 127.5zM518 -465q0 -96 103 -150.5t309 -54.5q205 0 313.5 54.5t108.5 150.5q0 97 -108.5 152t-313.5 55q-206 0 -309 -55t-103 -152z" />
    <glyph glyph-name="uni19A7" unicode="&#x19a7;" horiz-adv-x="979" 
d="M756 0q-6 16 -12 30.5t-13.5 29.5t-17 32.5t-21.5 38.5q-65 -68 -143.5 -106.5t-183.5 -38.5q-63 0 -118.5 14.5t-97.5 44.5t-66 76t-24 108q0 72 27 120t70.5 77.5t97 42t106.5 12.5q103 0 187 -35.5t143 -107.5q23 40 32 100t9 137q0 71 -20.5 132t-61 106t-101 70.5
t-140.5 25.5q-48 0 -87.5 -5t-73.5 -14.5t-63 -24t-55 -34.5v162q27 14 56.5 24.5t65 17.5t78 10.5t95.5 3.5q109 0 196.5 -31.5t149 -92.5t94.5 -149.5t33 -202.5q0 -54 -8.5 -105.5t-23.5 -96.5t-35.5 -82.5t-43.5 -63.5q36 -40 72 -99.5t62 -125.5h-164zM369 111
q77 0 141.5 34.5t114.5 94.5q-18 27 -44.5 48.5t-58.5 37t-67.5 24t-71.5 8.5q-45 0 -78 -10t-54.5 -27t-31.5 -39t-10 -46t9 -46.5t28.5 -40t50 -28t72.5 -10.5zM47 -467q0 70 31 128.5t88 99.5t136 64t175 23t175 -23t136 -64t88 -99.5t31 -128.5t-31 -127.5t-88 -99
t-136 -64t-175 -22.5t-175 22.5t-136 64t-88 99t-31 127.5zM205 -465q0 -96 70 -150.5t198 -54.5q64 0 115.5 14t88 40.5t56 64.5t19.5 86t-19.5 86.5t-56 65.5t-88 41t-115.5 14q-128 0 -198 -55t-70 -152z" />
    <glyph glyph-name="uni19A8" unicode="&#x19a8;" horiz-adv-x="1245" 
d="M623 909q-102 0 -170.5 -32t-110.5 -89.5t-60 -138t-18 -178.5q0 -82 14 -142.5t39.5 -101.5t60.5 -64.5t77 -31.5v-156q-75 15 -140.5 50t-114 94.5t-76.5 146.5t-28 207q0 128 28 234t90.5 182t163 118t245.5 42t245.5 -42t162.5 -118t90 -182t28 -234q0 -120 -28 -207
t-76 -146.5t-113.5 -94.5t-140.5 -50v156q41 8 76 31.5t60.5 64.5t39.5 101.5t14 142.5q0 98 -18 178.5t-60 138t-110.5 89.5t-169.5 32zM194 -467q0 70 31 128.5t88 99.5t136 64t175 23t175 -23t136 -64t88 -99.5t31 -128.5t-31 -127.5t-88 -99t-136 -64t-175 -22.5
t-175 22.5t-136 64t-88 99t-31 127.5zM351 -465q0 -96 70.5 -150.5t198.5 -54.5q64 0 115.5 14t87.5 40.5t55.5 64.5t19.5 86t-19.5 86.5t-55.5 65.5t-87.5 41t-115.5 14q-128 0 -198.5 -55t-70.5 -152z" />
    <glyph glyph-name="uni19A9" unicode="&#x19a9;" horiz-adv-x="1268" 
d="M1171 481q0 -124 -27.5 -213t-76 -149t-114 -94.5t-140.5 -49.5v156q42 8 77 31.5t60.5 66t39.5 105t14 149.5q0 89 -18 166.5t-60 135t-111 91t-170 33.5t-169.5 -32t-110.5 -89.5t-60 -138t-18 -178.5q0 -82 14 -142.5t39.5 -101.5t60.5 -64.5t76 -31.5v-156
q-75 15 -140.5 51t-114 99t-76 157t-27.5 226v557q0 192 36.5 345t112.5 259.5t192.5 163.5t276.5 57q85 0 169.5 -18.5t164.5 -59.5v-170q-80 53 -165.5 81t-166.5 28q-126 0 -213 -50.5t-141 -145t-78 -230.5t-24 -307v-117q30 32 65 59.5t78.5 47t97.5 30.5t121 11
q145 0 245.5 -42.5t162.5 -118.5t90 -180t28 -227zM216 -467q0 70 31 128.5t88 99.5t136 64t175 23t175 -23t136 -64t88 -99.5t31 -128.5t-31 -127.5t-88 -99t-136 -64t-175 -22.5t-175 22.5t-136 64t-88 99t-31 127.5zM373 -465q0 -96 70.5 -150.5t198.5 -54.5
q64 0 115.5 14t87.5 40.5t55.5 64.5t19.5 86t-19.5 86.5t-55.5 65.5t-87.5 41t-115.5 14q-128 0 -198.5 -55t-70.5 -152z" />
    <glyph glyph-name="uni19B0" unicode="&#x19b0;" horiz-adv-x="1038" 
d="M844 819q0 34 -4 52t-9 32h117q5 -8 12 -29t7 -61q0 -97 -50 -150t-147 -53q-58 0 -101 23.5t-77.5 59t-64 76.5t-60 76.5t-65 59t-80.5 23.5q-48 0 -75.5 -23t-27.5 -65q0 -41 23 -66.5t63 -25.5q26 0 43 4t37 10v-135q-9 -5 -33 -11t-59 -6q-61 0 -103.5 16t-68.5 46
t-37.5 72t-11.5 94q0 57 17.5 97t50 65.5t78 37t101.5 11.5q69 0 120.5 -23.5t90.5 -59t69 -76.5t57 -76.5t53.5 -59t58.5 -23.5q43 0 59.5 25t16.5 63zM844 193q0 34 -4 51.5t-9 31.5h117q5 -8 12 -28.5t7 -61.5q0 -97 -50 -149.5t-147 -52.5q-58 0 -101 23.5t-77.5 58.5
t-64 76.5t-60 76.5t-65 58.5t-80.5 23.5q-48 0 -75.5 -23t-27.5 -65q0 -40 23 -66t63 -26q26 0 43 4t37 10v-135q-9 -5 -33 -10.5t-59 -5.5q-61 0 -103.5 16t-68.5 46t-37.5 72t-11.5 93q0 57 17.5 97t50 65.5t78 37t101.5 11.5q69 0 120.5 -23.5t90.5 -59t69 -76.5
t57 -76.5t53.5 -59t58.5 -23.5q43 0 59.5 25t16.5 64z" />
    <glyph glyph-name="uni19B1" unicode="&#x19b1;" horiz-adv-x="932" 
d="M86 979q57 35 125.5 52.5t146.5 17.5q115 0 204 -38t150 -107.5t92.5 -167t31.5 -216.5q0 -130 -33.5 -231t-98 -171t-158.5 -106.5t-216 -36.5q-73 0 -134.5 14t-115.5 42v162q105 -78 248 -78q94 0 159 30.5t105.5 85t59 129t18.5 162.5q0 84 -17 154.5t-55 122.5
t-98.5 81t-147.5 29q-150 0 -266 -86v156z" />
    <glyph glyph-name="uni19B2" unicode="&#x19b2;" horiz-adv-x="1200" 
d="M598 958q-48 0 -95 -16.5t-89.5 -46.5t-78 -73t-61.5 -97q9 -143 38.5 -256t73.5 -192t101.5 -120.5t122.5 -41.5t119.5 40.5t95.5 116.5t66.5 186t32.5 249q-24 59 -59 105.5t-78 79t-91 49.5t-98 17zM606 1751q-79 0 -142.5 -57.5t-107.5 -165.5t-68 -264t-24 -353
q62 87 146.5 137t199.5 50q109 0 189 -49t137 -134q0 201 -21.5 356.5t-63.5 262t-103.5 162t-141.5 55.5zM96 928q1 238 36.5 418t101.5 301t161 182t215 61q237 0 365.5 -242t128.5 -718q0 -238 -33 -417t-95.5 -298.5t-152.5 -179.5t-205 -60q-120 0 -216.5 60
t-164.5 179.5t-104.5 298t-36.5 415.5z" />
    <glyph glyph-name="uni19B3" unicode="&#x19b3;" horiz-adv-x="932" 
d="M330 -25q-19 0 -43.5 1.5t-42.5 3.5v-330q0 -79 14.5 -134.5t50 -90t94.5 -50.5t148 -16q74 0 140.5 7.5t111.5 17.5v-140q-38 -6 -106.5 -15t-159.5 -9q-114 0 -199.5 20.5t-143 70.5t-86 134.5t-28.5 212.5v537q113 -80 248 -80q94 0 159 30.5t105.5 85t59 129
t18.5 162.5q0 84 -17 154.5t-55 122.5t-98.5 81t-147.5 29q-150 0 -266 -86v156q57 35 125.5 52.5t146.5 17.5q115 0 204 -38t150 -107.5t92.5 -167t31.5 -216.5q0 -130 -33.5 -231t-98 -171t-158.5 -106.5t-216 -36.5z" />
    <glyph glyph-name="uni19B4" unicode="&#x19b4;" horiz-adv-x="1159" 
d="M825 162q-100 -187 -315 -187q-367 0 -367 437v612h164v-586q0 -323 248 -323q61 0 111.5 23t86.5 65t56 101t20 130v590h164v-1356q0 -86 6.5 -145t24 -95.5t48.5 -52.5t79 -16q42 0 82 12v-141q-22 -5 -43.5 -7.5t-46.5 -2.5q-84 0 -144 20.5t-97.5 70.5t-55 134.5
t-17.5 212.5v504h-4z" />
    <glyph glyph-name="uni19B5" unicode="&#x19b5;" horiz-adv-x="1147" 
d="M1026 612q0 -48 -8.5 -108.5t-19 -119t-19 -106.5t-8.5 -69q0 -42 18 -59t55 -17v-153q-239 0 -239 188q0 42 8.5 91.5t19 104t19 112.5t8.5 116q0 65 -13.5 123t-46.5 101t-89 68t-142 25q-81 0 -138.5 -26.5t-94.5 -75.5t-54.5 -119.5t-17.5 -159.5q0 -84 14 -154
t39.5 -121t60.5 -82.5t77 -39.5v-156q-73 15 -138.5 55.5t-114.5 109.5t-77.5 167.5t-28.5 229.5q0 110 25.5 204t82.5 162.5t148 107t221 38.5q113 0 198 -30t141.5 -86t85 -137.5t28.5 -183.5z" />
    <glyph glyph-name="uni19B6" unicode="&#x19b6;" horiz-adv-x="2226" 
d="M1026 612q0 -48 -8.5 -108.5t-19 -119t-19 -106.5t-8.5 -69q0 -42 18 -59t55 -17v-153q-239 0 -239 188q0 42 8.5 91.5t19 104t19 112.5t8.5 116q0 65 -13.5 123t-46.5 101t-89 68t-142 25q-81 0 -138.5 -26.5t-94.5 -75.5t-54.5 -119.5t-17.5 -159.5q0 -84 14 -154
t39.5 -121t60.5 -82.5t77 -39.5v-156q-73 15 -138.5 55.5t-114.5 109.5t-77.5 167.5t-28.5 229.5q0 110 25.5 204t82.5 162.5t148 107t221 38.5q113 0 198 -30t141.5 -86t85 -137.5t28.5 -183.5zM2111 612q0 -48 -8.5 -108.5t-19 -119t-19 -106.5t-8.5 -69q0 -42 18 -59
t55 -17v-153q-239 0 -239 188q0 42 8.5 91.5t19 104t19 112.5t8.5 116q0 65 -13.5 123t-46.5 101t-89 68t-142 25q-81 0 -138.5 -26.5t-94.5 -75.5t-54.5 -119.5t-17.5 -159.5q0 -84 14 -154t39.5 -121t60.5 -82.5t77 -39.5v-156q-73 15 -138.5 55.5t-114.5 109.5
t-77.5 167.5t-28.5 229.5q0 110 25.5 204t82.5 162.5t148 107t221 38.5q113 0 198 -30t141.5 -86t85 -137.5t28.5 -183.5z" />
    <glyph glyph-name="uni19B7" unicode="&#x19b7;" horiz-adv-x="954" 
d="M164 1407q0 138 36.5 230.5t97 148.5t139.5 80t163 24q88 0 154.5 -13.5t122.5 -39.5v-162q-54 35 -127 55.5t-148 20.5q-57 0 -106 -19.5t-84.5 -60.5t-55.5 -104.5t-20 -151.5q0 -103 36 -174t98 -115t144.5 -64t176.5 -20v-137h-76q-49 0 -101 -6t-101.5 -22
t-94 -44.5t-78 -73.5t-53 -108.5t-19.5 -150.5q0 -81 23 -151t68.5 -122t112 -82t153.5 -30q91 0 167.5 21t135.5 65v-156q-28 -18 -64.5 -31t-77 -21.5t-83.5 -13t-85 -4.5q-119 0 -215.5 34.5t-164.5 100.5t-105 162t-37 220q0 123 35 209t90.5 143.5t123.5 90.5t134 50
q-65 16 -122.5 50.5t-100 87t-67.5 123.5t-25 161z" />
    <glyph glyph-name="uni19B8" unicode="&#x19b8;" horiz-adv-x="971" 
d="M485 909q-68 0 -109.5 -49.5t-41.5 -142.5q0 -49 17 -99t41 -95t51.5 -81.5t48.5 -58.5q21 25 46.5 61t48 80t37.5 93t15 100t-12 87.5t-33 60t-49 34t-60 10.5zM586 279q65 -73 126 -113.5t107 -40.5q47 0 77 8.5t54 24.5v-140q-29 -15 -61 -21.5t-74 -6.5q-53 0 -97 14
t-83 39t-75.5 58.5t-74.5 72.5q-35 -40 -70 -74t-73.5 -58.5t-82 -38t-95.5 -13.5q-42 0 -78.5 6.5t-65.5 21.5v140q25 -16 55.5 -24.5t80.5 -8.5q60 0 119.5 42t119.5 112q-27 31 -63.5 78t-68.5 104.5t-54.5 123.5t-22.5 136q0 75 21.5 134.5t60.5 101.5t94.5 64.5
t122.5 22.5q75 0 131 -22.5t94 -64t57 -101t19 -133.5q0 -72 -21 -139t-51.5 -124.5t-65.5 -103.5t-62 -77z" />
    <glyph glyph-name="uni19B9" unicode="&#x19b9;" horiz-adv-x="1200" 
d="M96 928q1 238 36.5 418t101.5 301t161 182t215 61q237 0 365.5 -242t128.5 -718q0 -238 -33 -417t-95.5 -298.5t-152.5 -179.5t-205 -60q-120 0 -216.5 60t-164.5 179.5t-104.5 298t-36.5 415.5zM598 958q-48 0 -95 -16.5t-89.5 -46.5t-78 -73t-61.5 -97
q9 -143 38.5 -256t73.5 -192t101.5 -120.5t122.5 -41.5t119.5 40.5t95.5 116.5t66.5 186t32.5 249q-24 59 -59 105.5t-78 79t-91 49.5t-98 17zM264 911q53 73 121 120t158 61v649q-65 -22 -117 -89t-88 -173t-55 -249t-19 -319zM936 915q0 362 -68.5 574t-199.5 252v-647
q86 -13 152 -59.5t116 -119.5z" />
    <glyph glyph-name="uni19BA" unicode="&#x19ba;" horiz-adv-x="954" 
d="M623 909q-76 0 -141.5 -27.5t-114 -80t-76 -128t-27.5 -171.5q0 -90 24.5 -161.5t69.5 -122t109.5 -77t144.5 -26.5q66 0 129 21.5t123 66.5v-156q-60 -35 -129.5 -53.5t-150.5 -18.5q-110 0 -200 37.5t-154 105t-99 161.5t-35 208q0 127 37.5 230.5t107 177t168 114
t220.5 40.5q18 0 36.5 -1.5t36.5 -3.5v414q0 79 -14.5 134.5t-49.5 91t-94.5 51.5t-148.5 16q-74 0 -140.5 -7.5t-111.5 -17.5v140q39 6 107.5 15t159.5 9q114 0 199.5 -20.5t142.5 -71t85.5 -135.5t28.5 -213v-621q-57 41 -117.5 60.5t-125.5 19.5z" />
    <glyph glyph-name="uni19BB" unicode="&#x19bb;" horiz-adv-x="1548" 
d="M86 979q57 35 125.5 52.5t146.5 17.5q115 0 203.5 -38t149 -107.5t92 -167t31.5 -216.5v-26v-863q0 -81 14 -134t39 -83.5t60.5 -42.5t78.5 -12t77.5 12t58.5 42.5t37 83.5t13 134v1393h170v-1382q0 -206 -91.5 -314t-264.5 -108q-171 0 -263.5 108t-92.5 314v442
q-127 -109 -340 -109q-73 0 -134.5 14t-115.5 42v162q105 -78 248 -78q91 0 155.5 29t105.5 81t60.5 123.5t20.5 155.5v18q0 84 -17 154.5t-55 122.5t-98.5 81t-147.5 29q-150 0 -266 -86v156z" />
    <glyph glyph-name="uni19BC" unicode="&#x19bc;" horiz-adv-x="1708" 
d="M1186 -641q43 0 77.5 12t59 42.5t38 83.5t13.5 134v1411h168v-1400q0 -206 -91.5 -314t-264.5 -108q-172 0 -264.5 108t-92.5 314v520h-4q-100 -187 -315 -187q-367 0 -367 437v612h164v-586q0 -323 248 -323q59 0 108.5 22t85.5 62t57 96.5t23 124.5v604h164v-1393
q0 -81 14 -134t39.5 -83.5t61 -42.5t78.5 -12z" />
    <glyph glyph-name="uni19BD" unicode="&#x19bd;" horiz-adv-x="1815" 
d="M1292 -641q43 0 78 12t59.5 42.5t38 83.5t13.5 134v1411h168v-1400q0 -206 -91.5 -314t-265.5 -108q-171 0 -263.5 108t-92.5 314v444q-63 -54 -147 -82.5t-189 -28.5q-114 0 -207 38t-159 107t-102 165.5t-36 214.5q0 129 36 231t102.5 172.5t162 108t215.5 37.5
q115 0 206 -36.5t154.5 -105t97.5 -167.5t34 -224v-24v-861q0 -81 13.5 -134t38 -83.5t59 -42.5t77.5 -12zM606 909q-79 0 -142.5 -27.5t-107.5 -79.5t-68 -126.5t-24 -169.5q0 -91 24.5 -164t69 -123t107.5 -77t141 -27q156 0 240.5 97t89.5 280v18q0 193 -84.5 296
t-245.5 103z" />
    <glyph glyph-name="uni19BE" unicode="&#x19be;" horiz-adv-x="1348" 
d="M485 909q-68 0 -109.5 -49.5t-41.5 -142.5q0 -49 17 -99t41 -95t51.5 -81.5t48.5 -58.5q21 25 46.5 61t48 80t37.5 93t15 100t-12 87.5t-33 60t-49 34t-60 10.5zM881 -10q-70 0 -123.5 11t-99 34t-87 57.5t-86.5 81.5q-35 -40 -70 -74t-73.5 -58.5t-82 -38t-95.5 -13.5
q-42 0 -78.5 6.5t-65.5 21.5v140q25 -16 55.5 -24.5t80.5 -8.5q60 0 119.5 42t119.5 112q-27 31 -63.5 78t-68.5 104.5t-54.5 123.5t-22.5 136q0 75 21.5 134.5t60.5 101.5t94.5 64.5t122.5 22.5q75 0 131 -22.5t94 -64t57 -101t19 -133.5q0 -72 -21 -139t-51.5 -124.5
t-65.5 -103.5t-62 -77q32 -36 65 -65t68 -48.5t74 -30t84 -10.5q48 0 81.5 19t54 58.5t29.5 101.5t9 147v1001q0 125 16.5 209t54 135t98 72.5t148.5 21.5q25 0 47 -2.5t43 -7.5v-141q-39 12 -82 12q-40 0 -70.5 -11.5t-51 -45.5t-30.5 -94t-10 -158v-967
q0 -124 -19.5 -215.5t-60 -151.5t-103.5 -89t-150 -29z" />
    <glyph glyph-name="uni19BF" unicode="&#x19bf;" horiz-adv-x="1815" 
d="M96 928q1 238 36.5 418t101.5 301t161 182t215 61q237 0 365.5 -242t128.5 -718v-1299q0 -81 13.5 -134t38 -83.5t59 -42.5t77.5 -12t78 12t59.5 42.5t38 83.5t13.5 134v1411h168v-1400q0 -206 -91.5 -314t-265.5 -108q-171 0 -263.5 108t-92.5 314v505
q-121 -172 -318 -172q-120 0 -216.5 60t-164.5 179.5t-104.5 298t-36.5 415.5zM598 958q-48 0 -95 -16.5t-89.5 -46.5t-78 -73t-61.5 -97q9 -143 38.5 -256t73.5 -192t101.5 -120.5t122.5 -41.5t119.5 40.5t95.5 116.5t66.5 186t32.5 249q-24 59 -59 105.5t-78 79t-91 49.5
t-98 17zM264 911q53 73 121 120t158 61v649q-65 -22 -117 -89t-88 -173t-55 -249t-19 -319zM936 915q0 362 -68.5 574t-199.5 252v-647q86 -13 152 -59.5t116 -119.5z" />
    <glyph glyph-name="uni19C0" unicode="&#x19c0;" horiz-adv-x="1815" 
d="M96 928q1 238 36.5 418t101.5 301t161 182t215 61q237 0 365.5 -242t128.5 -718v-1299q0 -81 13.5 -134t38 -83.5t59 -42.5t77.5 -12t78 12t59.5 42.5t38 83.5t13.5 134v1411h168v-1400q0 -206 -91.5 -314t-265.5 -108q-171 0 -263.5 108t-92.5 314v505
q-121 -172 -318 -172q-120 0 -216.5 60t-164.5 179.5t-104.5 298t-36.5 415.5zM598 958q-48 0 -95 -16.5t-89.5 -46.5t-78 -73t-61.5 -97q9 -143 38.5 -256t73.5 -192t101.5 -120.5t122.5 -41.5t119.5 40.5t95.5 116.5t66.5 186t32.5 249q-24 59 -59 105.5t-78 79t-91 49.5
t-98 17zM606 1751q-79 0 -142.5 -57.5t-107.5 -165.5t-68 -264t-24 -353q62 87 146.5 137t199.5 50q109 0 189 -49t137 -134q0 201 -21.5 356.5t-63.5 262t-103.5 162t-141.5 55.5z" />
    <glyph glyph-name="uni19C1" unicode="&#x19c1;" horiz-adv-x="1200" 
d="M580 -356q89 0 139.5 -43t64.5 -111q33 42 60.5 108.5t47 147t30 168t10.5 170.5q-62 -53 -145.5 -81t-186.5 -28q-114 0 -207 38t-159 107t-102 165.5t-36 214.5q0 129 36 231t102.5 172.5t162 108t215.5 37.5q115 0 206 -36.5t154.5 -105t97.5 -167.5t34 -224v-221
q0 -197 -23 -353t-61.5 -275.5t-90 -204t-109 -138.5t-116.5 -79t-114 -25q-103 0 -163 56.5t-60 158.5q0 97 56 153t157 56zM606 909q-79 0 -142.5 -27.5t-107.5 -79.5t-68 -126.5t-24 -169.5q0 -91 24.5 -164t69 -123t107.5 -77t141 -27q161 0 245.5 101.5t84.5 293.5
q0 193 -84.5 296t-245.5 103zM588 -670q43 0 67.5 26.5t24.5 74.5q0 45 -25.5 70.5t-68.5 25.5q-48 0 -72.5 -24.5t-24.5 -69.5q0 -50 26 -76.5t73 -26.5z" />
    <glyph glyph-name="uni19C2" unicode="&#x19c2;" horiz-adv-x="1245" 
d="M981 225q0 176 -18 305t-60 213t-110.5 125t-169.5 41q-102 0 -170.5 -35.5t-110.5 -101t-60 -157.5t-18 -205q0 -82 5.5 -136.5t17 -86.5t29.5 -45t44 -13q21 0 38 16.5t34 41t35 53t40 53t48.5 41t60.5 16.5q175 0 175 -241q0 -36 -2 -68.5t-5 -58.5h-147
q5 31 7.5 63.5t2.5 56.5q0 50 -10 72.5t-33 22.5q-13 0 -26 -16.5t-28.5 -40.5t-33.5 -53t-41 -53t-52 -40.5t-67 -16.5q-63 0 -111.5 23t-81.5 74.5t-50 134.5t-17 203q0 136 28 252.5t90.5 202t163 134t245.5 48.5t245.5 -54.5t162.5 -157.5t90 -252.5t28 -340.5
q0 -197 -23 -349t-61.5 -266t-90 -192t-109 -126.5t-116.5 -69.5t-114 -21q-103 0 -163 56.5t-60 158.5q0 97 56.5 153t156.5 56q89 0 139.5 -43t64.5 -111q33 42 61 112.5t48.5 165t31.5 210.5t11 247zM633 -670q43 0 67.5 26.5t24.5 74.5q0 45 -25.5 70.5t-68.5 25.5
q-48 0 -72 -24.5t-24 -69.5q0 -50 25.5 -76.5t72.5 -26.5z" />
    <glyph glyph-name="uni19C3" unicode="&#x19c3;" horiz-adv-x="1030" 
d="M365 -641q43 0 67.5 26t24.5 74q0 45 -25.5 71t-69.5 26q-48 0 -72 -25t-24 -70q0 -49 26 -75.5t73 -26.5zM584 909q-89 0 -148 -16t-94 -51.5t-49 -91t-14 -134.5v-278q0 -78 18.5 -122.5t59 -67t105.5 -28t159 -5.5q109 0 179.5 -35.5t112 -94.5t58 -135.5t16.5 -158.5
q0 -96 -34.5 -181.5t-97.5 -150t-152 -102t-197 -37.5q-64 0 -129 9.5t-117 36t-84.5 74t-32.5 123.5q0 97 56.5 153t156.5 56q51 0 92 -15t70 -43t44.5 -68t15.5 -89q0 -34 -7.5 -63t-19.5 -53q72 7 122.5 38t82 78t45.5 107t14 127q0 137 -49.5 210.5t-147.5 73.5
q-81 0 -150 2.5t-125 14t-99 34.5t-72 63t-44 100.5t-15 146.5v272q0 128 28.5 213t85.5 135.5t142.5 71.5t199.5 21q39 0 82.5 -4.5t85.5 -13t80 -21.5t66 -31v-156q-29 22 -65.5 38t-76 26.5t-79.5 16t-78 5.5z" />
    <glyph glyph-name="uni19C4" unicode="&#x19c4;" horiz-adv-x="1245" 
d="M586 -780q-81 0 -154.5 9t-129.5 35t-89 74t-33 125q0 97 56.5 153t156.5 56q51 0 91.5 -15t69.5 -43.5t44.5 -68.5t15.5 -90q0 -34 -8 -63t-20 -54h35q60 0 109 23t87.5 63t67 93.5t47.5 114t28 125t9 126.5q0 38 -3 66t-7 48.5t-8.5 35.5t-8.5 26q-60 -40 -134.5 -62
t-184.5 -22q-145 0 -245.5 42t-163 118t-90.5 182t-28 234q0 120 28 207t76.5 146.5t114 94.5t140.5 50v-156q-42 -8 -77 -31t-60.5 -64.5t-39.5 -102t-14 -142.5q0 -25 1.5 -53t4.5 -54.5t8 -51t11 -42.5q25 27 59.5 52t77.5 43.5t93 30t106 11.5q106 0 188.5 -37.5
t142.5 -103.5q7 23 12 49.5t8 53.5t4 53.5t1 48.5q0 82 -14 142.5t-39.5 102t-60.5 64.5t-76 31v156q75 -15 140.5 -50t113.5 -94.5t76 -146.5t28 -207q0 -115 -20.5 -203t-55.5 -151q32 -66 49 -140.5t17 -177.5q0 -80 -15 -160t-45 -153.5t-76 -136.5t-107 -109.5
t-138.5 -73t-171.5 -26.5zM623 115q51 0 94 9t76.5 22.5t57.5 29.5t36 31q-17 31 -43.5 57t-61 45t-75.5 30t-86 11q-44 0 -83.5 -12t-73.5 -31t-62 -43t-48 -49q12 -15 36.5 -32.5t59 -32.5t78 -25t95.5 -10zM401 -641q44 0 68.5 26t24.5 74q0 45 -25.5 71t-69.5 26
q-48 0 -72 -25t-24 -70q0 -49 26 -75.5t72 -26.5z" />
    <glyph glyph-name="uni19C5" unicode="&#x19c5;" horiz-adv-x="1868" 
d="M1599 88q-52 -54 -124.5 -83.5t-159.5 -29.5q-146 0 -250 70v156q53 -44 113 -65t135 -21q74 0 129 29t91.5 81t54.5 122.5t18 154.5q0 88 -15 162.5t-50 129t-92.5 85t-143.5 30.5q-58 0 -108 -15t-87 -47.5t-58.5 -83.5t-21.5 -122h-164q0 71 -23 122t-62 83.5
t-90.5 47.5t-108.5 15q-78 0 -137.5 -30t-99.5 -84t-60.5 -128.5t-20.5 -164.5t21.5 -161.5t60 -122t91.5 -77t116 -26.5q77 0 136.5 21.5t113.5 66.5v-156q-56 -35 -119.5 -53.5t-138.5 -18.5q-102 0 -184.5 37.5t-141.5 107t-91 167t-32 217.5t31 220.5t92.5 172.5
t154 112t214.5 40q58 0 114.5 -15.5t104.5 -44t84.5 -68t54.5 -87.5h4q17 48 53 87.5t84 68t105 44t115 15.5q122 0 210 -36.5t144.5 -106t83.5 -171t27 -231.5v-260q0 -197 -23 -349t-62 -266t-90 -192t-108.5 -126.5t-117 -69.5t-114.5 -21q-103 0 -163 56.5t-60 158.5
q0 97 56.5 153t156.5 56q90 0 140.5 -43t64.5 -111q60 75 99.5 225t47.5 373zM1255 -670q44 0 68.5 26.5t24.5 74.5q0 45 -25.5 70.5t-69.5 25.5q-48 0 -72 -24.5t-24 -69.5q0 -50 26 -76.5t72 -26.5z" />
    <glyph glyph-name="uni19C6" unicode="&#x19c6;" horiz-adv-x="932" 
d="M868 -195q0 -67 -9.5 -136.5t-31.5 -134.5t-58 -122t-89 -100t-125 -67.5t-166 -24.5q-81 0 -154 9t-129 35t-89 74t-33 125q0 97 56 153t157 56q51 0 91.5 -15t69.5 -43.5t44.5 -68.5t15.5 -90q0 -34 -8 -63t-21 -54h12q56 0 99.5 20.5t76.5 55t55.5 80.5t36.5 96.5
t20.5 102.5t6.5 100q0 79 -9.5 150.5t-35.5 126t-70.5 86.5t-115.5 32h-51v136h8q45 0 89.5 18.5t79 56t56 93.5t21.5 131q0 134 -72 209t-217 75q-37 0 -76.5 -5t-78 -15.5t-74 -26t-64.5 -37.5v162q57 32 133.5 47t161.5 15q115 0 200.5 -28.5t142 -83t84.5 -133
t28 -179.5q0 -75 -17 -132.5t-50 -101t-80.5 -73.5t-108.5 -50q70 -8 123.5 -44t90 -95.5t55.5 -141t19 -180.5zM205 -641q43 0 67.5 26t24.5 74q0 45 -25.5 71t-68.5 26q-48 0 -72.5 -25t-24.5 -70q0 -49 26 -75.5t73 -26.5z" />
    <glyph glyph-name="uni19C7" unicode="&#x19c7;" horiz-adv-x="1245" 
d="M977 84q-63 -53 -149.5 -81t-204.5 -28q-145 0 -245.5 42t-163 118t-90.5 182t-28 234q0 120 28 207t76.5 146.5t114 94.5t140.5 50v-156q-42 -8 -77 -31t-60.5 -64.5t-39.5 -102t-14 -142.5q0 -97 18 -178t60 -138.5t110.5 -89.5t170.5 -32q101 0 169.5 32t110.5 89.5
t60 138.5t18 178q0 82 -14 142.5t-39.5 102t-60.5 64.5t-76 31v156q75 -15 140.5 -50t113.5 -94.5t76 -146.5t28 -207v-256q0 -197 -23 -353t-61.5 -275.5t-90 -204t-109 -138.5t-116.5 -79t-114 -25q-103 0 -163 56.5t-60 158.5q0 97 56.5 153t156.5 56q89 0 139.5 -43
t64.5 -111q33 42 60.5 108.5t47 147t30 168t10.5 170.5zM633 -670q43 0 67.5 26.5t24.5 74.5q0 45 -25.5 70.5t-68.5 25.5q-48 0 -72 -24.5t-24 -69.5q0 -50 25.5 -76.5t72.5 -26.5z" />
    <glyph glyph-name="uni19C8" unicode="&#x19c8;" horiz-adv-x="1030" 
d="M948 301q0 -73 -26 -133t-77 -103t-126.5 -66.5t-175.5 -23.5q-101 0 -183.5 36.5t-141 106.5t-90.5 171t-32 231q0 119 34 216.5t97 167t152.5 107.5t200.5 38q94 0 176 -22.5t139 -57.5v-160q-59 43 -138.5 71.5t-178.5 28.5q-78 0 -136 -27t-97 -75t-59.5 -114
t-23.5 -144q56 31 129.5 55.5t169.5 24.5q98 0 171 -24.5t121 -68t71.5 -103.5t23.5 -132zM551 489q-87 0 -157 -25.5t-126 -60.5q9 -64 28.5 -117.5t53 -91t82 -58.5t113.5 -21q68 0 114 16t74 42t40.5 60t12.5 70q0 35 -9 68t-34.5 59.5t-71.5 42.5t-120 16z" />
    <glyph glyph-name="uni19C9" unicode="&#x19c9;" horiz-adv-x="1030" 
d="M948 745q0 -71 -23.5 -127.5t-71.5 -95.5t-121 -59.5t-171 -20.5q-88 0 -164 17t-135 45q0 -83 17 -154t55 -123.5t98.5 -82t147.5 -29.5q94 0 177 24.5t140 61.5v-156q-28 -18 -64.5 -31t-77.5 -21.5t-85 -13t-88 -4.5q-113 0 -203 35.5t-153 104t-96.5 168t-33.5 227.5
q0 130 33 230.5t93 169t145 104t188 35.5q95 0 168 -22t123 -62t76 -96t26 -124zM553 909q-64 0 -111.5 -18t-81.5 -51.5t-55.5 -80.5t-32.5 -106q59 -29 130.5 -50t148.5 -21q73 0 118 14t70 37t34 53.5t9 63.5q0 71 -56 115t-173 44z" />
    <glyph glyph-name="uni19D0" unicode="&#x19d0;" horiz-adv-x="1282" 
d="M641 -25q-123 0 -223.5 38t-172 107t-110.5 165.5t-39 214.5q0 129 38.5 231t111 172.5t175.5 108t232 37.5q125 0 223.5 -36.5t167.5 -105t105.5 -167.5t36.5 -224q0 -122 -36 -222t-105.5 -171t-171 -109.5t-232.5 -38.5zM647 909q-88 0 -159 -27.5t-120.5 -79.5
t-76.5 -126.5t-27 -169.5q0 -91 27.5 -164t77.5 -123t120.5 -77t157.5 -27q181 0 276 101.5t95 293.5q0 193 -95 296t-276 103z" />
    <glyph glyph-name="uni19D1" unicode="&#x19d1;" horiz-adv-x="932" 
d="M86 979q57 35 125.5 52.5t146.5 17.5q115 0 204 -38t150 -107.5t92.5 -167t31.5 -216.5q0 -130 -33.5 -231t-98 -171t-158.5 -106.5t-216 -36.5q-73 0 -134.5 14t-115.5 42v162q105 -78 248 -78q94 0 159 30.5t105.5 85t59 129t18.5 162.5q0 84 -17 154.5t-55 122.5
t-98.5 81t-147.5 29q-150 0 -266 -86v156z" />
    <glyph glyph-name="uni19D2" unicode="&#x19d2;" horiz-adv-x="1116" 
d="M432 -659q-123 0 -215 17.5t-172 57.5v170q81 -52 177.5 -80t213.5 -28q82 0 154.5 31t126.5 94t85.5 158.5t31.5 224.5v549q0 35 -1.5 73t-5 74.5t-9 70.5t-13.5 62q-5 -38 -20 -72t-42 -60.5t-67 -42t-94 -15.5q-100 0 -156.5 56t-56.5 153q0 51 14 90.5t45.5 67.5
t81 42.5t121.5 14.5q84 0 151.5 -26t115 -81t73.5 -140.5t26 -205.5v-610q0 -156 -40 -276.5t-114 -202t-178.5 -124t-232.5 -42.5zM590 938q-47 0 -72.5 -26.5t-25.5 -75.5q0 -45 24 -70t72 -25q43 0 68.5 26t25.5 71q0 48 -24.5 74t-67.5 26z" />
    <glyph glyph-name="uni19D3" unicode="&#x19d3;" horiz-adv-x="1014" 
d="M80 193q60 -39 129.5 -58.5t152.5 -19.5q107 0 181 30.5t120.5 85t67.5 129t21 162.5q0 84 -19.5 154.5t-63 122.5t-112.5 81t-168 29q-173 0 -303 -86v156q125 70 303 70q127 0 225.5 -38t166 -107.5t102.5 -167t35 -216.5q0 -130 -37 -231t-108.5 -171t-176.5 -106.5
t-240 -36.5h-26t-25 2q38 -41 83 -93t94.5 -106t100.5 -105.5t100.5 -92t95 -65.5t83.5 -25q42 0 68.5 7t52.5 20v-144q-54 -32 -143 -32q-73 0 -147 41t-145.5 105t-139 142t-127.5 152t-111 135.5t-90 91.5v185z" />
    <glyph glyph-name="uni19D4" unicode="&#x19d4;" horiz-adv-x="1122" 
d="M629 911q-77 0 -144 -18t-116.5 -57t-78 -101t-28.5 -149q0 -88 26 -145.5t69.5 -91.5t100 -48t117.5 -14q41 0 97.5 8t115.5 21.5t114.5 31t94.5 37.5v-156q-112 -145 -205.5 -265t-167.5 -225.5t-127.5 -202t-84.5 -195.5h-187q39 106 93.5 204t126.5 198.5t163 210.5
t205 241q-43 -19 -103 -33.5t-145 -14.5q-101 0 -186.5 29t-148.5 85t-98.5 138.5t-35.5 190.5q0 105 39 190t109 144.5t167.5 92t213.5 32.5q115 0 210.5 -19t155.5 -51v-156q-33 21 -76.5 37.5t-91.5 27.5t-98 17t-96 6z" />
    <glyph glyph-name="uni19D5" unicode="&#x19d5;" horiz-adv-x="1599" 
d="M1456 -383q0 -143 -64 -209.5t-186 -66.5q-51 0 -93.5 14t-72.5 42t-46.5 68t-16.5 93q0 54 7.5 80.5t12.5 35.5h131q-6 -20 -10 -43t-4 -49q0 -48 23 -73t61 -25q18 0 35 6t30 22t21 43t8 68v889q0 82 -5 154.5t-26.5 126.5t-64.5 85t-119 31q-62 0 -102.5 -21.5
t-65.5 -57t-36.5 -81.5t-16.5 -96h-158q-5 49 -16.5 95t-36 82t-64.5 57.5t-102 21.5q-76 0 -119 -31t-64.5 -85t-26.5 -126t-5 -153q0 -98 14 -167.5t39.5 -114.5t60.5 -69t77 -32v-156q-75 15 -140.5 50.5t-114 99t-76.5 159t-28 230.5q0 113 14.5 210.5t56.5 169.5
t117 113.5t195 41.5q68 0 116 -14t82.5 -41t58.5 -67t42 -91q18 51 42 90.5t58.5 66.5t83 41.5t115.5 14.5q121 0 195 -41.5t115 -113.5t55 -170t14 -212v-895z" />
    <glyph glyph-name="uni19D6" unicode="&#x19d6;" horiz-adv-x="1153" 
d="M283 745q0 -155 19 -272.5t62.5 -197t115 -120t177.5 -40.5q70 0 118.5 13.5t78.5 36.5t43.5 53.5t13.5 64.5q0 38 -17 67t-44.5 53t-63 45t-73 43.5t-73 48.5t-63 59t-44.5 76.5t-17 100.5q0 65 20 116t57 86t91 53t121 18q59 0 109.5 -11.5t89.5 -31.5v-144
q-41 19 -89 35t-110 16q-65 0 -100 -38t-35 -95q0 -46 30 -79.5t75.5 -63.5t98 -60t98 -68.5t75.5 -90t30 -123.5q0 -65 -20.5 -123.5t-69.5 -102t-129.5 -69t-200.5 -25.5q-150 0 -252.5 52t-166 151t-91.5 242t-28 325v320q0 192 36.5 345t112.5 259.5t192.5 163.5
t276.5 57q85 0 169.5 -18.5t164.5 -59.5v-170q-80 53 -165.5 81t-166.5 28q-126 0 -213 -50.5t-141 -145t-78 -230.5t-24 -307v-273z" />
    <glyph glyph-name="uni19D7" unicode="&#x19d7;" horiz-adv-x="1694" 
d="M1292 512q0 82 -5 154.5t-26.5 126.5t-64.5 85t-119 31q-62 0 -102.5 -21.5t-65.5 -57t-36.5 -81.5t-16.5 -96h-158q-5 49 -16.5 95t-36 82t-64.5 57.5t-102 21.5q-76 0 -119 -31t-64.5 -85t-26.5 -126t-5 -153q0 -98 14 -167.5t39.5 -114.5t60.5 -69t77 -32v-156
q-75 15 -140.5 50.5t-114 99t-76.5 159t-28 230.5q0 113 14.5 210.5t56.5 169.5t117 113.5t195 41.5q68 0 116 -14t82.5 -41t58.5 -67t42 -91q18 51 42 90.5t58.5 66.5t83 41.5t115.5 14.5q121 0 195 -41.5t115 -113.5t55 -170t14 -212v-891q0 -41 8 -67.5t21 -42t30 -21.5
t35 -6q39 0 61.5 25t22.5 73q0 26 -4 49t-10 43h131q5 -9 13 -33.5t8 -66.5q0 -59 -16.5 -102.5t-47 -72.5t-73 -43.5t-93.5 -14.5q-122 0 -186 66.5t-64 209.5v895z" />
    <glyph glyph-name="uni19D8" unicode="&#x19d8;" horiz-adv-x="1098" 
d="M549 817q-23 -100 -61 -208.5t-85 -215.5t-99.5 -208t-104.5 -185h-189q78 114 148 242t128.5 260t104.5 265t74 257h168q29 -124 74.5 -257t104 -265t128.5 -260t147 -242h-188q-52 84 -104.5 185t-99.5 208t-85 215.5t-61 208.5z" />
    <glyph glyph-name="uni19D9" unicode="&#x19d9;" horiz-adv-x="1157" 
d="M96 297q0 164 27 302t89 238t163.5 156t249.5 56q124 0 207.5 -38t134.5 -101t72.5 -145t21.5 -169q0 -209 -78 -311.5t-229 -102.5q-74 0 -122 17.5t-76.5 48t-40 70.5t-11.5 85q0 20 1.5 37.5t6.5 28.5h160q-5 -15 -6.5 -31.5t-1.5 -31.5q0 -47 21.5 -71t74.5 -24
q24 0 48 9.5t43 39.5t30.5 85.5t11.5 146.5q0 71 -15.5 129.5t-48.5 100t-83.5 64.5t-120.5 23q-108 0 -177.5 -49t-110.5 -133t-57 -197.5t-16 -242.5q0 -205 33 -357t95.5 -252t151.5 -149t201 -49q70 0 142.5 22t134.5 60v-160q-60 -29 -134.5 -45t-150.5 -16
q-145 0 -263.5 54t-202.5 169.5t-129.5 297t-45.5 435.5z" />
    <glyph glyph-name="uni19DE" unicode="&#x19de;" horiz-adv-x="1749" 
d="M1341 115q34 0 55.5 16.5t34 45t17 68t4.5 85.5v1122q0 128 18 212.5t56 134.5t98.5 70.5t144.5 20.5q25 0 47 -2.5t44 -7.5v-141q-40 12 -82 12q-48 0 -79.5 -16t-50 -52.5t-25.5 -95.5t-7 -145v-1090q0 -96 -14.5 -167t-47.5 -117.5t-85.5 -69.5t-127.5 -23t-131 20.5
t-104.5 64.5t-95.5 114t-105 170l-98 170q-51 88 -92 159t-79.5 121.5t-77.5 77.5t-85 27q-36 0 -73 -21.5t-67.5 -67t-49.5 -117t-19 -171.5q0 -90 21 -164.5t59.5 -128.5t91 -84t115.5 -30q51 0 99.5 19.5t94.5 60.5v-168q-85 -52 -200 -52q-103 0 -186 40t-141.5 113
t-90 175t-31.5 225q0 128 30 225t81 163t119 99.5t143 33.5t131.5 -21.5t106 -67t96.5 -115t102 -165.5l99 -170q66 -114 113 -189.5t84 -121.5t70 -65t70 -19z" />
    <glyph glyph-name="uni19DF" unicode="&#x19df;" horiz-adv-x="1749" 
d="M1341 115q34 0 55.5 16.5t34 45t17 68t4.5 85.5v1122q0 128 18 212.5t56 134.5t98.5 70.5t144.5 20.5q25 0 47 -2.5t44 -7.5v-141q-40 12 -82 12q-48 0 -79.5 -16t-50 -52.5t-25.5 -95.5t-7 -145v-1090q0 -96 -14.5 -167t-47.5 -117.5t-85.5 -69.5t-127.5 -23t-131 20.5
t-104.5 64.5t-95.5 114t-105 170l-98 170q-51 88 -92 159t-79.5 121.5t-77.5 77.5t-85 27q-36 0 -73 -21.5t-67.5 -67t-49.5 -117t-19 -171.5q0 -90 21 -164.5t59.5 -128.5t91 -84t115.5 -30q51 0 99.5 19.5t94.5 60.5v-168q-85 -52 -200 -52q-103 0 -186 40t-141.5 113
t-90 175t-31.5 225q0 128 30 225t81 163t119 99.5t143 33.5t131.5 -21.5t106 -67t96.5 -115t102 -165.5l99 -170q66 -114 113 -189.5t84 -121.5t70 -65t70 -19zM356 -467q0 70 39 128.5t113 99.5t180.5 64t241.5 23q134 0 240.5 -23t180.5 -64t113 -99.5t39 -128.5
t-39 -127.5t-113 -99t-180.5 -64t-240.5 -22.5q-135 0 -241.5 22.5t-180.5 64t-113 99t-39 127.5zM514 -465q0 -96 103 -150.5t309 -54.5q205 0 313.5 54.5t108.5 150.5q0 97 -108.5 152t-313.5 55q-206 0 -309 -55t-103 -152z" />
    <glyph glyph-name="attachment1" horiz-adv-x="0" 
d="M1669 -440q0 -87 -36.5 -151t-115.5 -106t-204.5 -62.5t-302.5 -20.5q-111 0 -197.5 2.5t-154 8t-118 13t-89.5 17.5v129q83 -28 224.5 -43t336.5 -15q239 0 366 53.5t127 170.5q0 105 -124 155.5t-371 50.5q-151 0 -247.5 -8.5t-152 -24.5t-76 -37.5t-20.5 -47.5
q0 -39 30 -57.5t77 -18.5q48 0 98 14t102.5 31t107.5 31t113 14q57 0 93.5 -12.5t58 -32t29.5 -44.5t8 -50q0 -31 -6 -55t-13 -39h-159q6 12 11 33.5t5 41.5q0 23 -14.5 35t-34.5 12q-33 0 -77.5 -14t-98 -31t-113.5 -31t-125 -14q-58 0 -105.5 11t-81.5 34.5t-52.5 59.5
t-18.5 86q0 55 35 97.5t113.5 71t205 43.5t308.5 15q330 0 494.5 -75.5t164.5 -239.5z" />
    <glyph glyph-name="attachment2" horiz-adv-x="815" 
d="M432 -127q101 0 188 -17t152 -54t102 -95.5t37 -140.5q0 -77 -31.5 -140.5t-97.5 -109.5t-169 -71t-246 -25q-62 0 -133 4.5t-137.5 13t-122.5 19.5t-89 24v154q42 -19 101 -33.5t124.5 -24t130.5 -14t119 -4.5q105 0 177 15.5t117 43.5t65 67t20 85q0 50 -20.5 87
t-64.5 61.5t-112.5 36.5t-164.5 12h-105l66 233h131z" />
    <glyph glyph-name="attachment3" horiz-adv-x="815" 
d="M328 0h131l65 -233h-104q-192 0 -277.5 -48.5t-85.5 -148.5q0 -46 20 -85t65 -67t117.5 -43.5t176.5 -15.5q54 0 119.5 4.5t131 14t124.5 24t100 33.5v-154q-33 -13 -89 -24t-122.5 -19.5t-137 -13t-132.5 -4.5q-143 0 -246 25t-169.5 71t-98 109.5t-31.5 140.5
q0 82 37 140.5t102 95.5t152.5 54t188.5 17z" />
    <glyph glyph-name="attachment4" horiz-adv-x="1276" 
d="M1065 55h143v-530q0 -69 -11.5 -125.5t-36.5 -96t-65.5 -61.5t-99.5 -22t-115.5 35.5t-111.5 89t-108 116t-104 116t-100.5 89t-97.5 35.5q-27 0 -51 -8t-42 -27.5t-29 -53.5t-11 -85q0 -186 178 -186q65 0 104.5 7.5t53.5 10.5v-115q-6 -2 -20.5 -6t-35.5 -8t-47.5 -7
t-56.5 -3q-162 0 -247.5 80t-85.5 227q0 72 23 127t61.5 92.5t89 56.5t106.5 19q71 0 135 -35.5t121.5 -89t110 -116t100 -116t92 -89t86.5 -35.5q22 0 36 17.5t22 44.5t11 61t3 67v524z" />
    <glyph glyph-name="attachment5" horiz-adv-x="1778" 
d="M315 -467q0 70 39 128.5t113 99.5t180.5 64t241.5 23q134 0 240.5 -23t180.5 -64t113 -99.5t39 -128.5t-39 -127.5t-113 -99t-180.5 -64t-240.5 -22.5q-135 0 -241.5 22.5t-180.5 64t-113 99t-39 127.5zM473 -465q0 -96 103 -150.5t309 -54.5q205 0 313.5 54.5
t108.5 150.5q0 97 -108.5 152t-313.5 55q-206 0 -309 -55t-103 -152z" />
    <glyph glyph-name="attachment6" horiz-adv-x="1778" 
d="M459 -467q0 70 31 128.5t88 99.5t136 64t175 23t175 -23t136 -64t88 -99.5t31 -128.5t-31 -127.5t-88 -99t-136 -64t-175 -22.5t-175 22.5t-136 64t-88 99t-31 127.5zM616 -465q0 -96 70.5 -150.5t198.5 -54.5q64 0 115.5 14t87.5 40.5t55.5 64.5t19.5 86t-19.5 86.5
t-55.5 65.5t-87.5 41t-115.5 14q-128 0 -198.5 -55t-70.5 -152z" />
    <glyph glyph-name="uni25CC" unicode="&#x25cc;" horiz-adv-x="1763" 
d="M1470 1167q60 -75 99 -168l-117 -47q-14 39 -34.5 75t-47.5 67zM295 1167l98 -73q-24 -31 -44.5 -67t-37.5 -75l-114 47q36 93 98 168zM1495 637q2 18 3 38.5t1 41.5q0 20 -1 40.5t-3 41.5l123 14q6 -47 6 -96t-6 -96zM145 621q-6 47 -6 96t6 96l123 -14q-2 -21 -3 -41.5
t-1 -40.5q0 -21 1 -41.5t3 -38.5zM1372 340q49 66 80 139l117 -47q-39 -90 -99 -168zM293 264q-60 78 -96 168l114 47q31 -73 80 -139zM1333 127q-39 -29 -81 -53.5t-87 -42.5l-49 114q41 17 77 37.5t64 42.5zM508 225q29 -22 63.5 -42.5t75.5 -37.5l-49 -114
q-45 18 -87 42.5t-81 53.5zM1165 1403q45 -21 86 -44.5t80 -53.5l-74 -99q-65 49 -141 82zM598 1403l49 -115q-76 -33 -139 -82l-76 99q39 30 80 53.5t86 44.5zM881 1458q51 0 98 -6l-16 -123q-21 2 -41.5 3t-40.5 1q-21 0 -41.5 -1t-38.5 -3l-17 123q45 6 97 6zM883 98
q14 0 37.5 1t42.5 5l16 -122q-49 -7 -96 -7q-52 0 -99 7l17 122q18 -4 42.5 -5t39.5 -1z" />
    <glyph glyph-name="uni25FB" unicode="&#x25fb;" horiz-adv-x="1763" 
d="M285 1196h1196v-1196h-1196v1196zM1356 1071h-948v-946h948v946z" />
    <glyph glyph-name="uni25FC" unicode="&#x25fc;" horiz-adv-x="1763" 
d="M285 1196h1196v-1196h-1196v1196z" />
    <glyph glyph-name="uni25FD" unicode="&#x25fd;" horiz-adv-x="1763" 
d="M555 1044h655v-655h-655v655zM1085 512v410h-407v-410h407z" />
    <glyph glyph-name="uni25FE" unicode="&#x25fe;" horiz-adv-x="1763" 
d="M555 1044h655v-655h-655v655z" />
    <glyph glyph-name="uni3001" unicode="&#x3001;" horiz-adv-x="2048" 
d="M641 -102l-135 -136q-154 181 -344 310l135 135q176 -119 344 -309z" />
    <glyph glyph-name="uni3002" unicode="&#x3002;" horiz-adv-x="2048" 
d="M401 229q95 0 161.5 -67.5t66.5 -159.5q0 -98 -70 -164.5t-160 -66.5q-88 0 -158.5 66.5t-70.5 164.5q0 96 67.5 161.5t163.5 65.5zM408 -121q47 0 78.5 38t31.5 83t-31.5 82t-87.5 37q-51 0 -83.5 -36t-32.5 -83t33.5 -84t91.5 -37z" />
    <glyph glyph-name="uni3008" unicode="&#x3008;" horiz-adv-x="2048" 
d="M1665 -33l-162 -84l-413 910l403 888l170 -71l-369 -813z" />
    <glyph glyph-name="uni3009" unicode="&#x3009;" horiz-adv-x="2048" 
d="M383 -33l373 830l-369 813l170 71l401 -888l-413 -910z" />
    <glyph glyph-name="uni300A" unicode="&#x300a;" horiz-adv-x="2048" 
d="M1200 788l387 -835l-112 -59l-426 894l436 885l123 -59zM1493 784l387 -821l-123 -63l-420 888l439 881l120 -55z" />
    <glyph glyph-name="uni300B" unicode="&#x300b;" horiz-adv-x="2048" 
d="M567 -106l-112 61l389 833l-410 828l123 59l436 -884zM285 -100l-123 65l387 821l-404 828l121 57l439 -880z" />
    <glyph glyph-name="uniFF01" unicode="&#xff01;" horiz-adv-x="2048" 
d="M375 1434l-19 -1030h-135l-18 1030h172zM291 -18q-46 0 -78.5 32t-32.5 78t32.5 78.5t78.5 32.5q45 0 78 -32.5t33 -78.5t-33 -78t-78 -32z" />
    <glyph glyph-name="uniFF08" unicode="&#xff08;" horiz-adv-x="2048" 
d="M1887 -326h-146q-310 354 -310 873q0 521 310 887h148q-314 -380 -314 -885q0 -501 312 -875z" />
    <glyph glyph-name="uniFF09" unicode="&#xff09;" horiz-adv-x="2048" 
d="M310 -326h-146q312 374 312 875q0 505 -314 885h148q312 -366 312 -887q0 -519 -312 -873z" />
    <glyph glyph-name="uniFF0C" unicode="&#xff0c;" horiz-adv-x="2048" 
d="M381 228l-160 -492h-117l117 492h160z" />
    <glyph glyph-name="uniFF0E" unicode="&#xff0e;" horiz-adv-x="2048" 
d="M298 -22q-46 0 -78.5 33t-32.5 79t32.5 79.5t78.5 33.5q47 0 80 -33.5t33 -79.5t-33 -79t-80 -33z" />
    <glyph glyph-name="uniFF1A" unicode="&#xff1a;" horiz-adv-x="2048" 
d="M298 824q-46 0 -78.5 33t-32.5 79t32.5 78t78.5 32q47 0 80 -32t33 -78t-33 -79t-80 -33zM298 -22q-46 0 -78.5 33t-32.5 79t32.5 79.5t78.5 33.5q47 0 80 -33.5t33 -79.5t-33 -79t-80 -33z" />
    <glyph glyph-name="uniFF1B" unicode="&#xff1b;" horiz-adv-x="2048" 
d="M301 824q-47 0 -79.5 33t-32.5 79t32.5 78t79.5 32q46 0 79 -32t33 -78t-33 -79t-79 -33zM391 228l-160 -492h-117l117 492h160z" />
    <glyph glyph-name="uniFF1F" unicode="&#xff1f;" horiz-adv-x="2048" 
d="M335 398q-9 26 -16 67.5t-7 82.5q0 64 25.5 115.5t63.5 96.5t83 86.5t83 84t63.5 89t25.5 102.5q0 48 -18.5 85t-50.5 62t-74 37.5t-89 12.5q-169 0 -293 -133v176q153 96 317 96q76 0 143 -20t117.5 -59.5t79.5 -98.5t29 -137q0 -74 -26 -132t-65.5 -106.5t-85.5 -90.5
t-85.5 -83.5t-65.5 -86.5t-26 -99q0 -46 11 -83.5t22 -63.5h-161zM425 -18q-44 0 -78 32q-33 32 -33 78q0 47 33 78q33 33 78 33t78 -33q33 -31 33 -78q0 -46 -33 -78q-34 -32 -78 -32z" />
    <glyph glyph-name="uni19DA" unicode="&#x19da;" horiz-adv-x="1167" 
d="M553 1049q44 0 89.5 -10t87 -31.5t76.5 -56t58 -83.5q65 91 91 196.5t26 219.5q0 75 -16.5 135t-46.5 111h176q24 -48 38.5 -107.5t14.5 -140.5q0 -98 -21.5 -178.5t-57 -149t-80 -129t-89.5 -118.5h-141q0 45 -14 82t-40.5 64t-64 41.5t-84.5 14.5q-75 0 -130.5 -29
t-91.5 -81t-53.5 -122.5t-17.5 -154.5q0 -88 18.5 -162.5t59 -129t105.5 -85t159 -30.5q72 0 133.5 21.5t114.5 56.5v-162q-54 -28 -116 -42t-134 -14q-122 0 -216.5 36.5t-159 106.5t-97.5 171t-33 231q0 128 31.5 226.5t90.5 165.5t143.5 102t191.5 35z" />
    <glyph glyph-name="uni19AA" unicode="&#x19aa;" horiz-adv-x="1825" 
d="M1563 510q0 88 -18.5 161.5t-59 126t-106 82t-158.5 29.5q-144 0 -248 -78v162q107 56 250 56q122 0 216 -36t158.5 -105t98 -169.5t33.5 -230.5q0 -127 -28 -226.5t-84.5 -167.5t-142 -103.5t-200.5 -35.5q-166 0 -289 65t-192 198q-57 -124 -166.5 -193.5t-257.5 -69.5
q-91 0 -161.5 17.5t-127.5 52.5v156q116 -86 266 -86q87 0 150.5 29t104.5 81t61 122.5t20 154.5q0 88 -18.5 162.5t-59 129t-105.5 85t-159 30.5q-143 0 -248 -78v162q54 28 116 42t134 14q121 0 214 -35.5t157.5 -104t98.5 -167t36 -224.5q0 -94 36.5 -169t96.5 -127
t136 -79.5t155 -27.5q145 0 218 101t73 294zM338 -467q0 70 39 128.5t113 99.5t180.5 64t241.5 23q134 0 240.5 -23t180.5 -64t113 -99.5t39 -128.5t-39 -127.5t-113 -99t-180.5 -64t-240.5 -22.5q-135 0 -241.5 22.5t-180.5 64t-113 99t-39 127.5zM496 -465
q0 -96 103 -150.5t309 -54.5q205 0 313.5 54.5t108.5 150.5q0 97 -108.5 152t-313.5 55q-206 0 -309 -55t-103 -152z" />
    <glyph glyph-name="uni19AB" unicode="&#x19ab;" horiz-adv-x="1268" 
d="M1198 -242q0 -66 -20.5 -115t-50.5 -85t-63 -60t-58 -39q29 54 49 122.5t20 156.5q0 54 -25 97.5t-67 74.5t-97 48t-116 17v152q42 8 83.5 32t75 67t54.5 106.5t21 150.5q0 89 -18 166.5t-60 135t-111 91t-170 33.5t-169.5 -32t-110.5 -89.5t-60 -138t-18 -178.5
q0 -82 14 -142.5t39.5 -101.5t60.5 -64.5t76 -31.5v-156q-75 15 -140.5 51t-114 99t-76 157t-27.5 226v557q0 192 36.5 345t112.5 259.5t192.5 163.5t276.5 57q85 0 169.5 -18.5t164.5 -59.5v-170q-80 53 -165.5 81t-166.5 28q-126 0 -213 -50.5t-141 -145t-78 -230.5
t-24 -307v-117q30 32 65 59.5t78.5 47t97.5 30.5t121 11q145 0 245.5 -42.5t162.5 -118.5t90 -180t28 -227q0 -81 -21 -147.5t-57 -118t-82.5 -87.5t-97.5 -56q56 -9 107 -33.5t91 -64t63.5 -93.5t23.5 -123zM243.5 -338.5q28.5 58.5 79.5 99.5t122.5 64t158.5 23t158.5 -23
t123 -64t79.5 -99.5t28 -128.5t-28 -127.5t-79.5 -99t-123 -64t-158.5 -22.5t-158.5 22.5t-122.5 64t-79.5 99t-28.5 127.5t28.5 128.5zM433 -615.5q60 -54.5 169 -54.5q55 0 99 14t75 38.5t47.5 58t16.5 72.5q0 114 -64 171.5t-174 57.5q-109 0 -169 -55t-60 -152
q0 -96 60 -150.5z" />
    <glyph glyph-name="uni200C" unicode="&#x200c;" horiz-adv-x="0" 
d="M37 1288v-1562h-74v1562h74z" />
    <glyph glyph-name="uni200D" unicode="&#x200d;" horiz-adv-x="0" 
d="M37 -274h-74v1388l-133 -135l-49 47l172 170l-172 168l49 49l170 -172l170 172l49 -49l-172 -168l172 -170l-49 -47l-133 135v-1388z" />
    <glyph glyph-name="uniFF61" unicode="&#xff61;" horiz-adv-x="1024" 
d="M401 229q95 0 161.5 -67.5t66.5 -159.5q0 -98 -70 -164.5t-160 -66.5q-88 0 -158.5 66.5t-70.5 164.5q0 96 67.5 161.5t163.5 65.5zM408 -121q47 0 78.5 38t31.5 83t-31.5 82t-87.5 37q-51 0 -83.5 -36t-32.5 -83t33.5 -84t91.5 -37z" />
    <glyph glyph-name="uniFF64" unicode="&#xff64;" horiz-adv-x="1024" 
d="M641 -102l-135 -136q-154 181 -344 310l135 135q176 -119 344 -309z" />
  </font>
</defs>
</svg>
